<?xml version="1.0" standalone="no"?>
<!DOCTYPE svg PUBLIC "-//W3C//DTD SVG 1.1//EN" "http://www.w3.org/Graphics/SVG/1.1/DTD/svg11.dtd" >
<svg>
<metadata>
Created by FontForge 20110222 at Wed Jul  1 11:23:26 2015
 By www-data
Copyright (c) 2010-2014 by tyPoland Lukasz Dziedzic with Reserved Font Name "Lato". Licensed under the SIL Open Font License, Version 1.1. 
</metadata>
<defs>
<font id="Lato-Black" horiz-adv-x="800" >
  <font-face 
    font-family="Lato Black"
    font-weight="900"
    font-stretch="normal"
    units-per-em="2000"
    panose-1="2 15 10 2 2 2 4 3 2 3"
    ascent="1610"
    descent="-390"
    x-height="1037"
    cap-height="1457"
    bbox="-1308 -599 2712 2233"
    underline-thickness="194"
    underline-position="-6"
    unicode-range="U+000D-FEFF"
  />
<missing-glyph horiz-adv-x="1123" 
d="M230 1152q62 48 140 79.5t183 31.5q78 0 137.5 -20t100.5 -56t62 -87t21 -113q0 -55 -13 -95t-32.5 -69t-43 -50t-45.5 -39t-39 -35t-23 -38l-27 -90h-212l-22 112q-8 39 1.5 66.5t28.5 49t43.5 39t46 36.5t36 41t14.5 53q0 23 -13 38.5t-49 15.5q-32 0 -53 -5
t-36.5 -11.5t-29 -11.5t-31.5 -5q-43 0 -63 36zM374 331q0 33 12 61.5t34 49.5t51 33t64 12q33 0 62 -12t50.5 -33t34 -49.5t12.5 -61.5t-12.5 -61.5t-34 -49.5t-50.5 -33t-62 -12q-35 0 -64 12t-51 33t-34 49.5t-12 61.5zM40 1457h1043v-1457h-1043v1457zM117 80h879v1297
h-879v-1297z" />
    <glyph glyph-name="fi" unicode="fi" horiz-adv-x="1253" 
d="M182 0v824l-68 14q-35 8 -56.5 25t-21.5 50v122h146v15q0 94 32.5 177.5t100.5 145t173.5 97.5t251.5 36q45 0 93 -4.5t83 -13.5l-10 -157q-2 -25 -25 -33t-49 -8q-104 0 -172 -16t-107.5 -47.5t-55 -78.5t-15.5 -108v-5h658v-1035h-310v823h-338v-823h-310z" />
    <glyph glyph-name="fl" unicode="fl" horiz-adv-x="1265" 
d="M182 0v824l-68 14q-35 8 -56.5 25t-21.5 50v122h146v36q0 79 26 154.5t80 134t138 94t200 35.5q98 0 184.5 -6t175.5 -6h174v-1477h-308v1269q-51 2 -98.5 4.5t-77.5 2.5q-95 0 -144.5 -52.5t-49.5 -152.5v-36h224v-212h-214v-823h-310z" />
    <glyph glyph-name="_246" unicode="fb" horiz-adv-x="1903" 
d="M859 0v1298q-35 14 -73.5 23t-76.5 9q-53 0 -95.5 -18t-71.5 -50t-44.5 -75.5t-15.5 -94.5v-57h243v-212h-233v-823h-310v824l-68 14q-35 8 -56.5 25t-21.5 50v122h146v57q0 93 30.5 172t96.5 136.5t169.5 90t250.5 32.5q55 0 102.5 -4t98 -9t107.5 -9t132 -4v-571
q60 58 131 92.5t160 34.5q88 0 160 -36t123 -102.5t78.5 -160.5t27.5 -210q0 -126 -32 -229t-90.5 -176.5t-139.5 -114t-179 -40.5q-47 0 -84 9t-68 25.5t-56.5 39.5t-49.5 50l-11 -52q-8 -32 -26 -44t-48 -12h-206zM1351 820q-57 0 -99 -25t-83 -73v-440q35 -39 76 -54.5
t83 -15.5q44 0 81 16.5t63.5 54t41.5 99t15 151.5q0 78 -11.5 132.5t-34 89t-56 50t-76.5 15.5z" />
    <glyph glyph-name="_247" unicode="ffb" horiz-adv-x="2567" 
d="M182 0v824l-68 14q-35 8 -56.5 25t-21.5 50v122h146v39q0 89 28.5 161.5t82 123.5t130.5 78.5t175 27.5q38 0 70 -4.5t67 -13.5l-6 -151q-2 -32 -26.5 -44.5t-50.5 -12.5q-41 0 -73 -8t-53.5 -28t-32.5 -53.5t-11 -84.5v-30h364v57q0 93 30.5 172t96.5 136.5t169.5 90
t250.5 32.5q55 0 102.5 -4t98 -9t107.5 -9t132 -4v-571q60 58 131 92.5t160 34.5q88 0 160 -36t123 -102.5t78.5 -160.5t27.5 -210q0 -126 -32 -229t-90.5 -176.5t-139.5 -114t-179 -40.5q-47 0 -84 9t-68 25.5t-56.5 39.5t-49.5 50l-11 -52q-8 -32 -26 -44t-48 -12h-206
v1298q-35 14 -73.5 23t-76.5 9q-53 0 -95.5 -18t-71.5 -50t-44.5 -75.5t-15.5 -94.5v-57h243v-212h-233v-823h-310v823h-354v-823h-310zM2015 820q-57 0 -99 -25t-83 -73v-440q35 -39 76 -54.5t83 -15.5q44 0 81 16.5t63.5 54t41.5 99t15 151.5q0 78 -11.5 132.5t-34 89
t-56 50t-76.5 15.5z" />
    <glyph glyph-name="f_f" unicode="ff" horiz-adv-x="1396" 
d="M182 0v824l-68 14q-35 8 -56.5 25t-21.5 50v122h146v39q0 89 28.5 161.5t82 123.5t130.5 78.5t175 27.5q38 0 70 -4.5t67 -13.5l-6 -151q-2 -32 -26.5 -44.5t-50.5 -12.5q-41 0 -73 -8t-53.5 -28t-32.5 -53.5t-11 -84.5v-30h364v78q0 89 28.5 161t82 123t130.5 79t175 28
q38 0 70 -4.5t67 -14.5l-6 -151q-1 -16 -8 -26.5t-18.5 -17t-24.5 -9.5t-26 -3q-41 0 -73 -8t-53.5 -28.5t-32.5 -54t-11 -84.5v-68h243v-212h-233v-823h-310v823h-354v-823h-310z" />
    <glyph glyph-name="_249" unicode="fh" horiz-adv-x="1894" 
d="M859 0v1298q-35 14 -73.5 23t-76.5 9q-53 0 -95.5 -18t-71.5 -50t-44.5 -75.5t-15.5 -94.5v-57h243v-212h-233v-823h-310v824l-68 14q-35 8 -56.5 25t-21.5 50v122h146v57q0 93 30.5 172t96.5 136.5t169.5 90t250.5 32.5q52 0 97.5 -4t92.5 -8.5t100 -8.5t121 -5h29v-551
q56 48 121.5 77.5t156.5 29.5q85 0 150.5 -29.5t110.5 -82t68 -125t23 -157.5v-659h-310v659q0 76 -35 118.5t-103 42.5q-51 0 -96 -22t-86 -59v-739h-310z" />
    <glyph glyph-name="_250" unicode="ffh" horiz-adv-x="2558" 
d="M182 0v824l-68 14q-35 8 -56.5 25t-21.5 50v122h146v39q0 89 28.5 161.5t82 123.5t130.5 78.5t175 27.5q38 0 70 -4.5t67 -13.5l-6 -151q-2 -32 -26.5 -44.5t-50.5 -12.5q-41 0 -73 -8t-53.5 -28t-32.5 -53.5t-11 -84.5v-30h364v57q0 93 30.5 172t96.5 136.5t169.5 90
t250.5 32.5q55 0 102.5 -4t98 -9t107.5 -9t132 -4v-551q56 48 121.5 77.5t156.5 29.5q85 0 150.5 -29.5t110.5 -82t68 -125t23 -157.5v-659h-310v659q0 76 -35 118.5t-103 42.5q-51 0 -96 -22t-86 -59v-739h-310v1298q-35 14 -73.5 23t-76.5 9q-53 0 -95.5 -18t-71.5 -50
t-44.5 -75.5t-15.5 -94.5v-57h243v-212h-233v-823h-310v823h-354v-823h-310z" />
    <glyph glyph-name="_251" unicode="f&#xec;" horiz-adv-x="1253" 
d="M790 1506q82 0 131.5 -25.5t72.5 -67.5l136 -245h-176q-35 0 -56 9.5t-44 32.5l-79 79q-86 -3 -142 -20.5t-90 -48.5t-47.5 -76.5t-13.5 -103.5v-5h658v-1035h-310v823h-338v-823h-310v824l-68 14q-35 8 -56.5 25t-21.5 50v122h146v15q0 94 30.5 177.5t101 145t187 97.5
t289.5 36z" />
    <glyph glyph-name="_252" unicode="f&#xee;" horiz-adv-x="1252" 
d="M182 0v824l-68 14q-35 8 -56.5 25t-21.5 50v122h146v105q0 81 22 146.5t64.5 111t104.5 70t143 24.5q30 0 54.5 -3t48.5 -11v-163q0 -23 -17.5 -31.5t-38.5 -8.5q-47 0 -64 -30.5t-17 -103.5v-106h658v-1035h-310v823h-338v-823h-310zM1374 1168h-206q-18 0 -35 5.5
t-34 22.5l-75 83l-12.5 12.5t-12.5 14.5q-6 -8 -12.5 -15t-12.5 -12l-77 -83q-15 -14 -33 -21t-36 -7h-214l234 289h292z" />
    <glyph glyph-name="_253" unicode="f&#x129;" horiz-adv-x="1252" 
d="M36 0zM1091 1387q24 0 39 12.5t15 53.5h188q0 -63 -17.5 -113.5t-48.5 -86t-73 -54.5t-91 -19q-37 0 -69 11.5t-59.5 25.5t-50 25.5t-39.5 11.5q-24 0 -38 -13.5t-14 -54.5h-190q0 63 18 113.5t49 86.5t73 55.5t90 19.5q37 0 69.5 -11.5t59.5 -25.5t49.5 -25.5
t39.5 -11.5zM182 0v824l-68 14q-35 8 -56.5 25t-21.5 50v122h146v105q0 81 22 146.5t64.5 111t104.5 70t143 24.5q30 0 54.5 -3t48.5 -11v-163q0 -23 -17.5 -31.5t-38.5 -8.5q-47 0 -64 -30.5t-17 -103.5v-106h658v-1035h-310v823h-338v-823h-310z" />
    <glyph glyph-name="_254" unicode="f&#xef;" horiz-adv-x="1252" 
d="M965 1295q0 -32 -13 -60t-35.5 -48.5t-52 -32.5t-63.5 -12q-32 0 -60.5 12t-50 32.5t-34.5 48.5t-13 60q0 33 13 62t34.5 50.5t50 34t60.5 12.5q34 0 63.5 -12.5t52 -34t35.5 -50.5t13 -62zM1331 1295q0 -32 -12.5 -60t-34.5 -48.5t-51.5 -32.5t-63.5 -12q-33 0 -62 12
t-51 32.5t-34.5 48.5t-12.5 60q0 33 12.5 62t34.5 50.5t51 34t62 12.5q34 0 63.5 -12.5t51.5 -34t34.5 -50.5t12.5 -62zM182 0v824l-68 14q-35 8 -56.5 25t-21.5 50v122h146v105q0 81 22 146.5t64.5 111t104.5 70t143 24.5q30 0 54.5 -3t48.5 -11v-163q0 -23 -17.5 -31.5
t-38.5 -8.5q-47 0 -64 -30.5t-17 -103.5v-106h658v-1035h-310v823h-338v-823h-310z" />
    <glyph glyph-name="_255" unicode="f&#x12b;" horiz-adv-x="1252" 
d="M36 0zM677 1391h620v-190h-620v190zM182 0v824l-68 14q-35 8 -56.5 25t-21.5 50v122h146v105q0 81 22 146.5t64.5 111t104.5 70t143 24.5q30 0 54.5 -3t48.5 -11v-163q0 -23 -17.5 -31.5t-38.5 -8.5q-47 0 -64 -30.5t-17 -103.5v-106h658v-1035h-310v823h-338v-823h-310z
" />
    <glyph glyph-name="_256" unicode="f&#x12d;" horiz-adv-x="1252" 
d="M36 0zM987 1159q-94 0 -157 24t-101 64.5t-54 94.5t-16 115h216q0 -27 4.5 -48t17 -34.5t34 -20.5t56.5 -7q34 0 56 7t34.5 20.5t17 34.5t4.5 48h216q0 -61 -16 -115t-54 -94.5t-101 -64.5t-157 -24zM182 0v824l-68 14q-35 8 -56.5 25t-21.5 50v122h146v105
q0 81 22 146.5t64.5 111t104.5 70t143 24.5q30 0 54.5 -3t48.5 -11v-163q0 -23 -17.5 -31.5t-38.5 -8.5q-47 0 -64 -30.5t-17 -103.5v-106h658v-1035h-310v823h-338v-823h-310z" />
    <glyph glyph-name="_257" unicode="f&#x12f;" horiz-adv-x="1252" 
d="M182 0v824l-68 14q-35 8 -56.5 25t-21.5 50v122h146v15q0 94 32.5 177.5t100.5 145t173.5 97.5t251.5 36q45 0 93 -4.5t83 -13.5l-10 -157q-2 -25 -25 -33t-49 -8q-104 0 -172 -16t-107.5 -47.5t-55 -78.5t-15.5 -108v-5h658v-1035h-37q-39 -21 -66.5 -52.5t-27.5 -69.5
q0 -24 13.5 -38.5t40.5 -14.5q15 0 24 1t15 2.5t10 3t9 1.5q21 0 28 -19l46 -111q-35 -21 -87 -35.5t-111 -14.5q-107 0 -162.5 42t-55.5 107q0 51 33.5 102t108.5 96h-91v823h-338v-823h-310z" />
    <glyph glyph-name="_258" unicode="f&#x131;" horiz-adv-x="1253" 
d="M182 0v824l-68 14q-35 8 -56.5 25t-21.5 50v122h146v105q0 81 22 146.5t64.5 111t104.5 70t143 24.5q30 0 54.5 -3t48.5 -11v-163q0 -23 -17.5 -31.5t-38.5 -8.5q-47 0 -64 -30.5t-17 -103.5v-106h658v-1035h-310v823h-338v-823h-310z" />
    <glyph glyph-name="f_f_i" unicode="ffi" horiz-adv-x="1917" 
d="M182 0v824l-68 14q-35 8 -56.5 25t-21.5 50v122h146v39q0 89 28.5 161.5t82 123.5t130.5 78.5t175 27.5q38 0 70 -4.5t67 -13.5l-6 -151q-2 -32 -26.5 -44.5t-50.5 -12.5q-41 0 -73 -8t-53.5 -28t-32.5 -53.5t-11 -84.5v-30h364v15q0 94 32.5 177.5t100.5 145t173.5 97.5
t251.5 36q45 0 93 -4.5t83 -13.5l-10 -157q-2 -25 -25 -33t-49 -8q-104 0 -172 -16t-107.5 -47.5t-55 -78.5t-15.5 -108v-5h658v-1035h-310v823h-338v-823h-310v823h-354v-823h-310z" />
    <glyph glyph-name="_260" unicode="ff&#xec;" horiz-adv-x="1917" 
d="M1494 0v823h-338v-823h-310v823h-354v-823h-310v824l-68 14q-35 8 -56.5 25t-21.5 50v122h146v39q0 89 28.5 161.5t82 123.5t130.5 78.5t175 27.5q38 0 70 -4.5t67 -13.5l-6 -151q-2 -32 -26.5 -44.5t-50.5 -12.5q-41 0 -73 -8t-53.5 -28t-32.5 -53.5t-11 -84.5v-30h364
v78q0 89 34 161.5t103 123.5t175 78.5t250 27.5q54 0 93.5 -4t66.5 -11t42.5 -18t23.5 -24l156 -279h-176q-35 0 -56 9.5t-44 32.5l-91 92h-11q-77 0 -128 -12.5t-81.5 -37.5t-43.5 -62.5t-13 -86.5v-68h658v-1035h-310z" />
    <glyph glyph-name="_261" unicode="ff&#xee;" horiz-adv-x="1916" 
d="M36 0zM1494 0v823h-338v-823h-310v823h-354v-823h-310v824l-68 14q-35 8 -56.5 25t-21.5 50v122h146v39q0 89 28.5 161.5t82 123.5t130.5 78.5t175 27.5q38 0 70 -4.5t67 -13.5l-6 -151q-2 -32 -26.5 -44.5t-50.5 -12.5q-41 0 -73 -8t-53.5 -28t-32.5 -53.5t-11 -84.5
v-30h364v105q0 81 22 146.5t64.5 111t104.5 70t143 24.5q30 0 54.5 -3t48.5 -11v-163q0 -23 -17.5 -31.5t-38.5 -8.5q-47 0 -64 -30.5t-17 -103.5v-106h658v-1035h-310zM2035 1168h-206q-18 0 -35 5.5t-34 22.5l-75 83l-12.5 12.5t-12.5 14.5q-6 -8 -12.5 -15t-12.5 -12
l-77 -83q-15 -14 -33 -21t-36 -7h-214l234 289h292z" />
    <glyph glyph-name="_262" unicode="ff&#x129;" horiz-adv-x="1916" 
d="M36 0zM1494 0v823h-338v-823h-310v823h-354v-823h-310v824l-68 14q-35 8 -56.5 25t-21.5 50v122h146v39q0 89 28.5 161.5t82 123.5t130.5 78.5t175 27.5q38 0 70 -4.5t67 -13.5l-6 -151q-2 -32 -26.5 -44.5t-50.5 -12.5q-41 0 -73 -8t-53.5 -28t-32.5 -53.5t-11 -84.5
v-30h364v105q0 81 22 146.5t64.5 111t104.5 70t143 24.5q30 0 54.5 -3t48.5 -11v-163q0 -23 -17.5 -31.5t-38.5 -8.5q-47 0 -64 -30.5t-17 -103.5v-106h658v-1035h-310zM1758 1387q24 0 39 12.5t15 53.5h188q0 -63 -17.5 -113.5t-48.5 -86t-73 -54.5t-91 -19q-37 0 -69 11.5
t-59.5 25.5t-50 25.5t-39.5 11.5q-24 0 -38 -13.5t-14 -54.5h-190q0 63 18 113.5t49 86.5t73 55.5t90 19.5q37 0 69.5 -11.5t59.5 -25.5t49.5 -25.5t39.5 -11.5z" />
    <glyph glyph-name="_263" unicode="ff&#xef;" horiz-adv-x="1916" 
d="M1630 1295q0 -32 -13 -60t-35.5 -48.5t-52 -32.5t-63.5 -12q-32 0 -60.5 12t-50 32.5t-34.5 48.5t-13 60q0 33 13 62t34.5 50.5t50 34t60.5 12.5q34 0 63.5 -12.5t52 -34t35.5 -50.5t13 -62zM1996 1295q0 -32 -12.5 -60t-34.5 -48.5t-51.5 -32.5t-63.5 -12q-33 0 -62 12
t-51 32.5t-34.5 48.5t-12.5 60q0 33 12.5 62t34.5 50.5t51 34t62 12.5q34 0 63.5 -12.5t51.5 -34t34.5 -50.5t12.5 -62zM1494 0v823h-338v-823h-310v823h-354v-823h-310v824l-68 14q-35 8 -56.5 25t-21.5 50v122h146v39q0 89 28.5 161.5t82 123.5t130.5 78.5t175 27.5
q38 0 70 -4.5t67 -13.5l-6 -151q-2 -32 -26.5 -44.5t-50.5 -12.5q-41 0 -73 -8t-53.5 -28t-32.5 -53.5t-11 -84.5v-30h364v105q0 81 22 146.5t64.5 111t104.5 70t143 24.5q30 0 54.5 -3t48.5 -11v-163q0 -23 -17.5 -31.5t-38.5 -8.5q-47 0 -64 -30.5t-17 -103.5v-106h658
v-1035h-310z" />
    <glyph glyph-name="_264" unicode="ff&#x12b;" horiz-adv-x="1916" 
d="M36 0zM1494 0v823h-338v-823h-310v823h-354v-823h-310v824l-68 14q-35 8 -56.5 25t-21.5 50v122h146v39q0 89 28.5 161.5t82 123.5t130.5 78.5t175 27.5q38 0 70 -4.5t67 -13.5l-6 -151q-2 -32 -26.5 -44.5t-50.5 -12.5q-41 0 -73 -8t-53.5 -28t-32.5 -53.5t-11 -84.5
v-30h364v105q0 81 22 146.5t64.5 111t104.5 70t143 24.5q30 0 54.5 -3t48.5 -11v-163q0 -23 -17.5 -31.5t-38.5 -8.5q-47 0 -64 -30.5t-17 -103.5v-106h658v-1035h-310zM1344 1391h620v-190h-620v190z" />
    <glyph glyph-name="_265" unicode="ff&#x12d;" horiz-adv-x="1916" 
d="M36 0zM1494 0v823h-338v-823h-310v823h-354v-823h-310v824l-68 14q-35 8 -56.5 25t-21.5 50v122h146v39q0 89 28.5 161.5t82 123.5t130.5 78.5t175 27.5q38 0 70 -4.5t67 -13.5l-6 -151q-2 -32 -26.5 -44.5t-50.5 -12.5q-41 0 -73 -8t-53.5 -28t-32.5 -53.5t-11 -84.5
v-30h364v105q0 81 22 146.5t64.5 111t104.5 70t143 24.5q30 0 54.5 -3t48.5 -11v-163q0 -23 -17.5 -31.5t-38.5 -8.5q-47 0 -64 -30.5t-17 -103.5v-106h658v-1035h-310zM1654 1159q-94 0 -157 24t-101 64.5t-54 94.5t-16 115h216q0 -27 4.5 -48t17 -34.5t34 -20.5t56.5 -7
q34 0 56 7t34.5 20.5t17 34.5t4.5 48h216q0 -61 -16 -115t-54 -94.5t-101 -64.5t-157 -24z" />
    <glyph glyph-name="_266" unicode="ff&#x12f;" horiz-adv-x="1916" 
d="M182 0v824l-68 14q-35 8 -56.5 25t-21.5 50v122h146v39q0 89 28.5 161.5t82 123.5t130.5 78.5t175 27.5q38 0 70 -4.5t67 -13.5l-6 -151q-2 -32 -26.5 -44.5t-50.5 -12.5q-41 0 -73 -8t-53.5 -28t-32.5 -53.5t-11 -84.5v-30h364v15q0 94 32.5 177.5t100.5 145t173.5 97.5
t251.5 36q45 0 93 -4.5t83 -13.5l-10 -157q-2 -25 -25 -33t-49 -8q-104 0 -172 -16t-107.5 -47.5t-55 -78.5t-15.5 -108v-5h658v-1035h-32q-39 -21 -66.5 -52.5t-27.5 -69.5q0 -24 13.5 -38.5t40.5 -14.5q15 0 24 1t15 2.5t10 3t9 1.5q21 0 28 -19l46 -111
q-35 -21 -87 -35.5t-111 -14.5q-107 0 -162.5 42t-55.5 107q0 51 33.5 102t108.5 96h-96v823h-338v-823h-310v823h-354v-823h-310z" />
    <glyph glyph-name="_267" unicode="ff&#x131;" horiz-adv-x="1917" 
d="M1494 0v823h-338v-823h-310v823h-354v-823h-310v824l-68 14q-35 8 -56.5 25t-21.5 50v122h146v39q0 89 28.5 161.5t82 123.5t130.5 78.5t175 27.5q38 0 70 -4.5t67 -13.5l-6 -151q-2 -32 -26.5 -44.5t-50.5 -12.5q-41 0 -73 -8t-53.5 -28t-32.5 -53.5t-11 -84.5v-30h364
v105q0 81 22 146.5t64.5 111t104.5 70t143 24.5q30 0 54.5 -3t48.5 -11v-163q0 -23 -17.5 -31.5t-38.5 -8.5q-47 0 -64 -30.5t-17 -103.5v-106h658v-1035h-310z" />
    <glyph glyph-name="_268" unicode="fj" horiz-adv-x="1253" 
d="M182 0v824l-68 14q-35 8 -56.5 25t-21.5 50v122h146v15q0 94 32.5 177.5t100.5 145t173.5 97.5t251.5 36q45 0 93 -4.5t83 -13.5l-10 -157q-2 -25 -25 -33t-49 -8q-104 0 -172 -16t-107.5 -47.5t-55 -78.5t-15.5 -108v-5h658v-1037q0 -73 -18.5 -137.5t-61 -113
t-112 -76.5t-172.5 -28q-38 0 -70.5 4.5t-67.5 13.5l10 163q2 21 14 31t48 10t59 6t36.5 21t19 40.5t5.5 65.5v825h-338v-823h-310z" />
    <glyph glyph-name="_269" unicode="ffj" horiz-adv-x="1917" 
d="M182 0v824l-68 14q-35 8 -56.5 25t-21.5 50v122h146v39q0 89 28.5 161.5t82 123.5t130.5 78.5t175 27.5q38 0 70 -4.5t67 -13.5l-6 -151q-2 -32 -26.5 -44.5t-50.5 -12.5q-41 0 -73 -8t-53.5 -28t-32.5 -53.5t-11 -84.5v-30h364v15q0 94 32.5 177.5t100.5 145t173.5 97.5
t251.5 36q45 0 93 -4.5t83 -13.5l-10 -157q-2 -25 -25 -33t-49 -8q-104 0 -172 -16t-107.5 -47.5t-55 -78.5t-15.5 -108v-5h658v-1037q0 -73 -18.5 -137.5t-61 -113t-112 -76.5t-172.5 -28q-38 0 -70.5 4.5t-67.5 13.5l10 163q2 21 14 31t48 10t59 6t36.5 21t19 40.5
t5.5 65.5v825h-338v-823h-310v823h-354v-823h-310z" />
    <glyph glyph-name="_270" unicode="fk" horiz-adv-x="1871" 
d="M182 0v824l-68 14q-35 8 -56.5 25t-21.5 50v122h146v57q0 93 30.5 172t96.5 136.5t169.5 90t250.5 32.5q52 0 97.5 -4t92.5 -8.5t100 -8.5t121 -5h29v-839h46q29 0 44 8.5t30 28.5l196 292q18 25 41 37.5t59 12.5h284l-268 -369q-38 -50 -90 -82q23 -17 42 -39.5
t36 -50.5l292 -496h-280q-35 0 -60 11.5t-42 40.5l-196 367q-14 25 -29 32.5t-45 7.5h-60v-459h-310v1298q-35 14 -73.5 23t-76.5 9q-53 0 -95.5 -18t-71.5 -50t-44.5 -75.5t-15.5 -94.5v-57h243v-212h-233v-823h-310z" />
    <glyph glyph-name="_271" unicode="ffk" horiz-adv-x="2535" 
d="M182 0v824l-68 14q-35 8 -56.5 25t-21.5 50v122h146v39q0 89 28.5 161.5t82 123.5t130.5 78.5t175 27.5q38 0 70 -4.5t67 -13.5l-6 -151q-2 -32 -26.5 -44.5t-50.5 -12.5q-41 0 -73 -8t-53.5 -28t-32.5 -53.5t-11 -84.5v-30h364v57q0 93 30.5 172t96.5 136.5t169.5 90
t250.5 32.5q52 0 97.5 -4t92.5 -8.5t100 -8.5t121 -5h29v-839h46q29 0 44 8.5t30 28.5l196 292q18 25 41 37.5t59 12.5h284l-268 -369q-38 -50 -90 -82q23 -17 42 -39.5t36 -50.5l292 -496h-280q-35 0 -60 11.5t-42 40.5l-196 367q-14 25 -29 32.5t-45 7.5h-60v-459h-310
v1298q-35 14 -73.5 23t-76.5 9q-53 0 -95.5 -18t-71.5 -50t-44.5 -75.5t-15.5 -94.5v-57h243v-212h-233v-823h-310v823h-354v-823h-310z" />
    <glyph glyph-name="f_f_l" unicode="ffl" horiz-adv-x="1929" 
d="M182 0v824l-68 14q-35 8 -56.5 25t-21.5 50v122h146v39q0 89 28.5 161.5t82 123.5t130.5 78.5t175 27.5q38 0 70 -4.5t67 -13.5l-6 -151q-2 -32 -26.5 -44.5t-50.5 -12.5q-41 0 -73 -8t-53.5 -28t-32.5 -53.5t-11 -84.5v-30h364v36q0 79 26 154.5t80 134t138 94t200 35.5
q90 0 171 -5.5t162 -6.5h201v-1477h-308v1269q-51 2 -98.5 4.5t-77.5 2.5q-95 0 -144.5 -52.5t-49.5 -152.5v-36h243v-212h-233v-823h-310v823h-354v-823h-310z" />
    <glyph glyph-name="_273" unicode="ft" horiz-adv-x="1457" 
d="M1171 823v-515q0 -36 17.5 -59.5t50.5 -23.5q17 0 28.5 3.5t20 8t16 8t17.5 3.5q14 0 22.5 -6.5t17.5 -20.5l94 -147q-60 -45 -135 -67.5t-155 -22.5q-74 0 -130.5 21.5t-95 61t-58.5 95.5t-20 125v536h-369v-823h-310v824l-68 14q-35 8 -56.5 25t-21.5 50v122h146v59
q0 89 28.5 161t82 123t130.5 79t175 28q38 0 70 -4.5t67 -14.5l-6 -151q-1 -16 -8 -26.5t-18.5 -17t-24.5 -9.5t-26 -3q-41 0 -73 -8t-53.5 -28.5t-32.5 -54t-11 -84.5v-49h397l62 255q12 48 68 48h162v-303h257v-212h-257z" />
    <glyph glyph-name="_274" unicode="fft" horiz-adv-x="2121" 
d="M182 0v824l-68 14q-35 8 -56.5 25t-21.5 50v122h146v39q0 89 28.5 161.5t82 123.5t130.5 78.5t175 27.5q38 0 70 -4.5t67 -13.5l-6 -151q-2 -32 -26.5 -44.5t-50.5 -12.5q-41 0 -73 -8t-53.5 -28t-32.5 -53.5t-11 -84.5v-30h364v59q0 89 28.5 161t82 123t130.5 79t175 28
q38 0 70 -4.5t67 -14.5l-6 -151q-1 -16 -8 -26.5t-18.5 -17t-24.5 -9.5t-26 -3q-41 0 -73 -8t-53.5 -28.5t-32.5 -54t-11 -84.5v-49h397l62 255q12 48 68 48h162v-303h257v-212h-257v-515q0 -36 17.5 -59.5t50.5 -23.5q17 0 28.5 3.5t20 8t16 8t17.5 3.5q14 0 22.5 -6.5
t17.5 -20.5l94 -147q-60 -45 -135 -67.5t-155 -22.5q-74 0 -130.5 21.5t-95 61t-58.5 95.5t-20 125v536h-369v-823h-310v823h-354v-823h-310z" />
    <glyph glyph-name="_292" unicode="tf" horiz-adv-x="1434" 
d="M882 0v823h-400v-515q0 -36 17.5 -59.5t50.5 -23.5q17 0 28.5 3.5t20 8t16 8t17.5 3.5q14 0 22.5 -6.5t17.5 -20.5l94 -147q-60 -45 -135 -67.5t-155 -22.5q-74 0 -130.5 21.5t-95 61t-58.5 95.5t-20 125v536h-88q-24 0 -41 15.5t-17 45.5v121l165 32l61 253q12 48 68 48
h162v-303h400v59q0 89 28.5 161t82 123t130.5 79t175 28q38 0 70 -4.5t67 -14.5l-6 -151q-1 -16 -8 -26.5t-18.5 -17t-24.5 -9.5t-26 -3q-41 0 -73 -8t-53.5 -28.5t-32.5 -54t-11 -84.5v-49h243v-212h-233v-823h-310z" />
    <glyph glyph-name="_293" unicode="t&#x12f;" horiz-adv-x="1340" 
d="M1218 -167q21 0 28 -19l46 -111q-35 -21 -87 -35.5t-111 -14.5q-107 0 -162.5 42t-55.5 107q0 51 33.5 102t108.5 96h-100v823h-434v-515q0 -36 17.5 -59.5t50.5 -23.5q17 0 28.5 3.5t20 8t16 8t17.5 3.5q14 0 22.5 -6.5t17.5 -20.5l94 -147q-60 -45 -135 -67.5
t-155 -22.5q-74 0 -130.5 21.5t-95 61t-58.5 95.5t-20 125v536h-88q-24 0 -41 15.5t-17 45.5v121l165 32l61 253q12 48 68 48h162v-303h744v-1035h-28q-39 -21 -66.5 -52.5t-27.5 -69.5q0 -24 13.5 -38.5t40.5 -14.5q15 0 24 1t15 2.5t10 3t9 1.5zM1260 1321
q0 -37 -15 -69.5t-41 -57t-60.5 -39t-73.5 -14.5q-38 0 -71 14.5t-58.5 39t-40 57t-14.5 69.5q0 38 14.5 71t40 58t58.5 39t71 14q39 0 73.5 -14t60.5 -39t41 -58t15 -71z" />
    <glyph glyph-name="_294" unicode="t&#x131;" horiz-adv-x="1339" 
d="M1226 1035v-1035h-310v823h-434v-515q0 -36 17.5 -59.5t50.5 -23.5q17 0 28.5 3.5t20 8t16 8t17.5 3.5q14 0 22.5 -6.5t17.5 -20.5l94 -147q-60 -45 -135 -67.5t-155 -22.5q-74 0 -130.5 21.5t-95 61t-58.5 95.5t-20 125v536h-88q-24 0 -41 15.5t-17 45.5v121l165 32
l61 253q12 48 68 48h162v-303h744z" />
    <glyph glyph-name="_295" unicode="tt" horiz-adv-x="1443" 
d="M476 -16q-74 0 -130.5 21.5t-95 61t-58.5 95.5t-20 125v536h-88q-24 0 -41 15.5t-17 45.5v121l165 32l61 253q12 48 68 48h162v-303h383l62 255q12 48 68 48h162v-303h257v-212h-257v-515q0 -36 17.5 -59.5t50.5 -23.5q17 0 28.5 3.5t20 8t16 8t17.5 3.5q14 0 22.5 -6.5
t17.5 -20.5l94 -147q-60 -45 -135 -67.5t-155 -22.5q-74 0 -130.5 21.5t-95 61t-58.5 95.5t-20 125v536h-365v-515q0 -36 17.5 -59.5t50.5 -23.5q17 0 28.5 3.5t20 8t16 8t17.5 3.5q14 0 22.5 -6.5t17.5 -20.5l94 -147q-60 -45 -135 -67.5t-155 -22.5z" />
    <glyph glyph-name="_296" unicode="ttf" horiz-adv-x="2109" 
d="M1557 0v823h-400v-515q0 -36 17.5 -59.5t50.5 -23.5q17 0 28.5 3.5t20 8t16 8t17.5 3.5q14 0 22.5 -6.5t17.5 -20.5l94 -147q-60 -45 -135 -67.5t-155 -22.5q-74 0 -130.5 21.5t-95 61t-58.5 95.5t-20 125v536h-365v-515q0 -36 17.5 -59.5t50.5 -23.5q17 0 28.5 3.5t20 8
t16 8t17.5 3.5q14 0 22.5 -6.5t17.5 -20.5l94 -147q-60 -45 -135 -67.5t-155 -22.5q-74 0 -130.5 21.5t-95 61t-58.5 95.5t-20 125v536h-88q-24 0 -41 15.5t-17 45.5v121l165 32l61 253q12 48 68 48h162v-303h383l62 255q12 48 68 48h162v-303h400v59q0 89 28.5 161t82 123
t130.5 79t175 28q38 0 70 -4.5t67 -14.5l-6 -151q-1 -16 -8 -26.5t-18.5 -17t-24.5 -9.5t-26 -3q-41 0 -73 -8t-53.5 -28.5t-32.5 -54t-11 -84.5v-49h243v-212h-233v-823h-310z" />
    <glyph glyph-name="_297" unicode="tt&#x12f;" horiz-adv-x="1995" 
d="M1876 -167q21 0 28 -19l46 -111q-35 -21 -87 -35.5t-111 -14.5q-107 0 -162.5 42t-55.5 107q0 51 33.5 102t108.5 96h-103v823h-414v-515q0 -36 17.5 -59.5t50.5 -23.5q17 0 28.5 3.5t20 8t16 8t17.5 3.5q14 0 22.5 -6.5t17.5 -20.5l94 -147q-60 -45 -135 -67.5
t-155 -22.5q-74 0 -130.5 21.5t-95 61t-58.5 95.5t-20 125v536h-365v-515q0 -36 17.5 -59.5t50.5 -23.5q17 0 28.5 3.5t20 8t16 8t17.5 3.5q14 0 22.5 -6.5t17.5 -20.5l94 -147q-60 -45 -135 -67.5t-155 -22.5q-74 0 -130.5 21.5t-95 61t-58.5 95.5t-20 125v536h-88
q-24 0 -41 15.5t-17 45.5v121l165 32l61 253q12 48 68 48h162v-303h383l62 255q12 48 68 48h162v-303h724v-1035h-25q-39 -21 -66.5 -52.5t-27.5 -69.5q0 -24 13.5 -38.5t40.5 -14.5q15 0 24 1t15 2.5t10 3t9 1.5zM1915 1321q0 -37 -15 -69.5t-41 -57t-60.5 -39t-73.5 -14.5
q-38 0 -71 14.5t-58.5 39t-40 57t-14.5 69.5q0 38 14.5 71t40 58t58.5 39t71 14q39 0 73.5 -14t60.5 -39t41 -58t15 -71z" />
    <glyph glyph-name="_298" unicode="tt&#x131;" horiz-adv-x="1994" 
d="M476 -16q-74 0 -130.5 21.5t-95 61t-58.5 95.5t-20 125v536h-88q-24 0 -41 15.5t-17 45.5v121l165 32l61 253q12 48 68 48h162v-303h383l62 255q12 48 68 48h162v-303h724v-1035h-310v823h-414v-515q0 -36 17.5 -59.5t50.5 -23.5q17 0 28.5 3.5t20 8t16 8t17.5 3.5
q14 0 22.5 -6.5t17.5 -20.5l94 -147q-60 -45 -135 -67.5t-155 -22.5q-74 0 -130.5 21.5t-95 61t-58.5 95.5t-20 125v536h-365v-515q0 -36 17.5 -59.5t50.5 -23.5q17 0 28.5 3.5t20 8t16 8t17.5 3.5q14 0 22.5 -6.5t17.5 -20.5l94 -147q-60 -45 -135 -67.5t-155 -22.5z" />
    <glyph glyph-name="_735" unicode="f&#x1d0;" horiz-adv-x="1252" 
d="M182 0v824l-68 14q-35 8 -56.5 25t-21.5 50v122h146v105q0 81 22 146.5t64.5 111t104.5 70t143 24.5q30 0 54.5 -3t48.5 -11v-163q0 -23 -17.5 -31.5t-38.5 -8.5q-47 0 -64 -30.5t-17 -103.5v-106h658v-1035h-310v823h-338v-823h-310zM1138 1168h-292l-204 289h214
q18 0 36 -5t24 -14l54 -91q7 -11 14 -23t13 -26q11 28 25 49l54 91q6 9 24 14t36 5h206z" />
    <glyph glyph-name="_736" unicode="f&#x209;" horiz-adv-x="1252" 
d="M552 1492q52 0 88.5 -4t62 -13t43.5 -24t34 -38l176 -245h-146q-35 0 -56 9.5t-44 32.5l-62 65q-51 -1 -83.5 -7.5t-51 -21.5t-25 -40.5t-6.5 -64.5v-106h658v-1035h-310v823h-338v-823h-310v824l-68 14q-35 8 -56.5 25t-21.5 50v122h146v105q0 83 27.5 148.5t76.5 110.5
t117 69t149 24zM1030 1473q47 0 71 -15.5t39 -44.5l116 -245h-126q-35 0 -57.5 8.5t-42.5 33.5l-200 263h200z" />
    <glyph glyph-name="_737" unicode="f&#x20b;" horiz-adv-x="1252" 
d="M182 0v824l-68 14q-35 8 -56.5 25t-21.5 50v122h146v105q0 81 22 146.5t64.5 111t104.5 70t143 24.5q30 0 54.5 -3t48.5 -11v-163q0 -23 -17.5 -31.5t-38.5 -8.5q-47 0 -64 -30.5t-17 -103.5v-106h658v-1035h-310v823h-338v-823h-310zM994 1467q94 0 157 -24t101 -64.5
t54 -94.5t16 -115h-216q0 27 -4.5 48t-17 34.5t-34.5 20.5t-56 7q-35 0 -56.5 -7t-34 -20.5t-17 -34.5t-4.5 -48h-216q0 61 16 115t54 94.5t101 64.5t157 24z" />
    <glyph glyph-name="_738" unicode="f&#x1e2f;" horiz-adv-x="1252" 
d="M958 1214q0 -28 -11.5 -53t-31.5 -43.5t-46 -29t-56 -10.5q-28 0 -53.5 10.5t-44.5 29t-30.5 43.5t-11.5 53q0 29 11.5 54.5t30.5 45t44.5 30.5t53.5 11q30 0 56 -11t46 -30.5t31.5 -45t11.5 -54.5zM1321 1214q0 -28 -11 -53t-30.5 -43.5t-45.5 -29t-56 -10.5
q-29 0 -55 10.5t-45.5 29t-30.5 43.5t-11 53q0 29 11 54.5t30.5 45t45.5 30.5t55 11q30 0 56 -11t45.5 -30.5t30.5 -45t11 -54.5zM1397 1609l-230 -201q-25 -21 -53.5 -32t-66.5 -11h-166l106 184q9 14 18.5 25.5t22 19t29.5 11.5t40 4h300zM182 0v824l-68 14
q-35 8 -56.5 25t-21.5 50v122h146v105q0 81 22 146.5t64.5 111t104.5 70t143 24.5q30 0 54.5 -3t48.5 -11v-163q0 -23 -17.5 -31.5t-38.5 -8.5q-47 0 -64 -30.5t-17 -103.5v-106h658v-1035h-310v823h-338v-823h-310z" />
    <glyph glyph-name="_740" unicode="ff&#x1d0;" horiz-adv-x="1916" 
d="M182 0v824l-68 14q-35 8 -56.5 25t-21.5 50v122h146v39q0 89 28.5 161.5t82 123.5t130.5 78.5t175 27.5q38 0 70 -4.5t67 -13.5l-6 -151q-2 -32 -26.5 -44.5t-50.5 -12.5q-41 0 -73 -8t-53.5 -28t-32.5 -53.5t-11 -84.5v-30h364v105q0 81 22 146.5t64.5 111t104.5 70
t143 24.5q30 0 54.5 -3t48.5 -11v-163q0 -23 -17.5 -31.5t-38.5 -8.5q-47 0 -64 -30.5t-17 -103.5v-106h658v-1035h-310v823h-338v-823h-310v823h-354v-823h-310zM1298 1457h214q18 0 36 -5t24 -14l54 -91q7 -11 14 -23t13 -26q11 28 25 49l54 91q6 9 24 14t36 5h206
l-204 -289h-292z" />
    <glyph glyph-name="_741" unicode="ff&#x209;" horiz-adv-x="1916" 
d="M182 0v824l-68 14q-35 8 -56.5 25t-21.5 50v122h146v39q0 89 28.5 161.5t82 123.5t130.5 78.5t175 27.5q38 0 70 -4.5t67 -13.5l-6 -151q-2 -32 -26.5 -44.5t-50.5 -12.5q-41 0 -73 -8t-53.5 -28t-32.5 -53.5t-11 -84.5v-30h364v105q0 81 24 146.5t72 111t119 70
t165 24.5q52 0 88.5 -4t62 -13t43.5 -24t34 -38l176 -245h-146q-35 0 -56 9.5t-44 32.5l-62 65q-52 -1 -86 -7.5t-54 -21.5t-28 -40.5t-8 -64.5v-106h658v-1035h-310v823h-338v-823h-310v823h-354v-823h-310zM1706 1473q47 0 71 -15.5t39 -44.5l116 -245h-126
q-35 0 -57.5 8.5t-42.5 33.5l-200 263h200z" />
    <glyph glyph-name="_742" unicode="ff&#x20b;" horiz-adv-x="1916" 
d="M182 0v824l-68 14q-35 8 -56.5 25t-21.5 50v122h146v39q0 89 28.5 161.5t82 123.5t130.5 78.5t175 27.5q38 0 70 -4.5t67 -13.5l-6 -151q-2 -32 -26.5 -44.5t-50.5 -12.5q-41 0 -73 -8t-53.5 -28t-32.5 -53.5t-11 -84.5v-30h364v105q0 81 22 146.5t64.5 111t104.5 70
t143 24.5q30 0 54.5 -3t48.5 -11v-163q0 -23 -17.5 -31.5t-38.5 -8.5q-47 0 -64 -30.5t-17 -103.5v-106h658v-1035h-310v823h-338v-823h-310v823h-354v-823h-310zM1639 1467q94 0 157 -24t101 -64.5t54 -94.5t16 -115h-216q0 27 -4.5 48t-17 34.5t-34.5 20.5t-56 7
q-35 0 -56.5 -7t-34 -20.5t-17 -34.5t-4.5 -48h-216q0 61 16 115t54 94.5t101 64.5t157 24z" />
    <glyph glyph-name="_743" unicode="ff&#x1e2f;" horiz-adv-x="1916" 
d="M1494 0v823h-338v-823h-310v823h-354v-823h-310v824l-68 14q-35 8 -56.5 25t-21.5 50v122h146v39q0 89 28.5 161.5t82 123.5t130.5 78.5t175 27.5q38 0 70 -4.5t67 -13.5l-6 -151q-2 -32 -26.5 -44.5t-50.5 -12.5q-41 0 -73 -8t-53.5 -28t-32.5 -53.5t-11 -84.5v-30h364
v105q0 81 22 146.5t64.5 111t104.5 70t143 24.5q30 0 54.5 -3t48.5 -11v-163q0 -23 -17.5 -31.5t-38.5 -8.5q-47 0 -64 -30.5t-17 -103.5v-106h658v-1035h-310zM2057 1609l-230 -201q-25 -21 -53.5 -32t-66.5 -11h-166l106 184q9 14 18.5 25.5t22 19t29.5 11.5t40 4h300z
M1981 1214q0 -28 -11 -53t-30.5 -43.5t-45.5 -29t-56 -10.5q-29 0 -55 10.5t-45.5 29t-30.5 43.5t-11 53q0 29 11 54.5t30.5 45t45.5 30.5t55 11q30 0 56 -11t45.5 -30.5t30.5 -45t11 -54.5zM1618 1214q0 -28 -11.5 -53t-31.5 -43.5t-46 -29t-56 -10.5q-28 0 -53.5 10.5
t-44.5 29t-30.5 43.5t-11.5 53q0 29 11.5 54.5t30.5 45t44.5 30.5t53.5 11q30 0 56 -11t46 -30.5t31.5 -45t11.5 -54.5z" />
    <glyph glyph-name="_1525" unicode="f&#x237;" horiz-adv-x="1253" 
d="M182 0v824l-68 14q-35 8 -56.5 25t-21.5 50v122h146v105q0 81 22 146.5t64.5 111t104.5 70t143 24.5q30 0 54.5 -3t48.5 -11v-163q0 -23 -17.5 -31.5t-38.5 -8.5q-47 0 -64 -30.5t-17 -103.5v-106h658v-1037q0 -73 -18.5 -137.5t-61 -113t-112 -76.5t-172.5 -28
q-38 0 -70.5 4.5t-67.5 13.5l10 163q2 21 14 31t48 10t59 6t36.5 21t19 40.5t5.5 65.5v825h-338v-823h-310z" />
    <glyph glyph-name="_1526" unicode="ff&#x237;" horiz-adv-x="1917" 
d="M1804 -2q0 -73 -18.5 -137.5t-61 -113t-112 -76.5t-172.5 -28q-38 0 -70.5 4.5t-67.5 13.5l10 163q2 21 14 31t48 10t59 6t36.5 21t19 40.5t5.5 65.5v825h-338v-823h-310v823h-354v-823h-310v824l-68 14q-35 8 -56.5 25t-21.5 50v122h146v39q0 89 28.5 161.5t82 123.5
t130.5 78.5t175 27.5q38 0 70 -4.5t67 -13.5l-6 -151q-2 -32 -26.5 -44.5t-50.5 -12.5q-41 0 -73 -8t-53.5 -28t-32.5 -53.5t-11 -84.5v-30h364v105q0 81 22 146.5t64.5 111t104.5 70t143 24.5q30 0 54.5 -3t48.5 -11v-163q0 -23 -17.5 -31.5t-38.5 -8.5q-47 0 -64 -30.5
t-17 -103.5v-106h658v-1037v0z" />
    <glyph glyph-name="_1539" unicode="f&#x135;" horiz-adv-x="1252" 
d="M36 0zM182 0v824l-68 14q-35 8 -56.5 25t-21.5 50v122h146v105q0 81 22 146.5t64.5 111t104.5 70t143 24.5q30 0 54.5 -3t48.5 -11v-163q0 -23 -17.5 -31.5t-38.5 -8.5q-47 0 -64 -30.5t-17 -103.5v-106h658v-1037q0 -73 -18.5 -137.5t-61 -113t-112 -76.5t-172.5 -28
q-38 0 -70.5 4.5t-67.5 13.5l10 163q2 21 14 31t48 10t59 6t36.5 21t19 40.5t5.5 65.5v825h-338v-823h-310zM1367 1168h-206q-18 0 -35 5.5t-34 22.5l-75 83l-12.5 12.5t-12.5 14.5q-6 -8 -12.5 -15t-12.5 -12l-77 -83q-15 -14 -33 -21t-36 -7h-214l234 289h292z" />
    <glyph glyph-name="_1540" unicode="f&#x13e;" horiz-adv-x="1264" 
d="M36 0zM182 0v824l-68 14q-35 8 -56.5 25t-21.5 50v122h146v36q0 79 26 154.5t80 134t138 94t200 35.5q98 0 184.5 -6t175.5 -6h174v-1477h-308v1269q-51 2 -98.5 4.5t-77.5 2.5q-95 0 -144.5 -52.5t-49.5 -152.5v-36h224v-212h-214v-823h-310zM1522 1499q16 0 26 -4
t14.5 -10.5t6 -13.5t1.5 -13q0 -8 -3.5 -23t-15 -44t-33 -77.5t-56.5 -124.5q-17 -33 -42 -42.5t-64 -9.5h-110l66 362h210z" />
    <glyph glyph-name="_1541" unicode="f&#x13c;" horiz-adv-x="1265" 
d="M36 0zM182 0v824l-68 14q-35 8 -56.5 25t-21.5 50v122h146v36q0 79 26 154.5t80 134t138 94t200 35.5q98 0 184.5 -6t175.5 -6h174v-1477h-308v1269q-51 2 -98.5 4.5t-77.5 2.5q-95 0 -144.5 -52.5t-49.5 -152.5v-36h224v-212h-214v-823h-310zM1095 -85q16 0 26 -4
t14.5 -10.5t6 -13.5t1.5 -13q0 -9 -2 -24t-9.5 -40t-22.5 -60.5t-40 -85.5q-17 -33 -42 -42.5t-64 -9.5h-110l52 303h190z" />
    <glyph glyph-name="_1542" unicode="f&#x21b;" horiz-adv-x="1457" 
d="M36 0zM1171 823v-515q0 -36 17.5 -59.5t50.5 -23.5q17 0 28.5 3.5t20 8t16 8t17.5 3.5q14 0 22.5 -6.5t17.5 -20.5l94 -147q-60 -45 -135 -67.5t-155 -22.5q-74 0 -130.5 21.5t-95 61t-58.5 95.5t-20 125v536h-369v-823h-310v824l-68 14q-35 8 -56.5 25t-21.5 50v122h146
v59q0 89 28.5 161t82 123t130.5 79t175 28q38 0 70 -4.5t67 -14.5l-6 -151q-1 -16 -8 -26.5t-18.5 -17t-24.5 -9.5t-26 -3q-41 0 -73 -8t-53.5 -28.5t-32.5 -54t-11 -84.5v-49h397l62 255q12 48 68 48h162v-303h257v-212h-257zM1225 -85q16 0 26 -4t14.5 -10.5t6 -13.5
t1.5 -13q0 -9 -2 -24t-9.5 -40t-22.5 -60.5t-40 -85.5q-17 -33 -42 -42.5t-64 -9.5h-110l52 303h190z" />
    <glyph glyph-name="_1543" unicode="f&#x165;" horiz-adv-x="1457" 
d="M36 0zM1171 823v-515q0 -36 17.5 -59.5t50.5 -23.5q17 0 28.5 3.5t20 8t16 8t17.5 3.5q14 0 22.5 -6.5t17.5 -20.5l94 -147q-60 -45 -135 -67.5t-155 -22.5q-74 0 -130.5 21.5t-95 61t-58.5 95.5t-20 125v536h-369v-823h-310v824l-68 14q-35 8 -56.5 25t-21.5 50v122h146
v59q0 89 28.5 161t82 123t130.5 79t175 28q38 0 70 -4.5t67 -14.5l-6 -151q-1 -16 -8 -26.5t-18.5 -17t-24.5 -9.5t-26 -3q-41 0 -73 -8t-53.5 -28.5t-32.5 -54t-11 -84.5v-49h397l62 255q12 48 68 48h162v-303h257v-212h-257zM1567 1499q16 0 26 -4t14.5 -10.5t6 -13.5
t1.5 -13q0 -8 -3.5 -23t-15 -44t-33 -77.5t-56.5 -124.5q-17 -33 -42 -42.5t-64 -9.5h-110l66 362h210z" />
    <glyph glyph-name="_2305" unicode="f&#x1ecb;" horiz-adv-x="1253" 
d="M36 0zM182 0v824l-68 14q-35 8 -56.5 25t-21.5 50v122h146v15q0 94 32.5 177.5t100.5 145t173.5 97.5t251.5 36q45 0 93 -4.5t83 -13.5l-10 -157q-2 -25 -25 -33t-49 -8q-104 0 -172 -16t-107.5 -47.5t-55 -78.5t-15.5 -108v-5h658v-1035h-310v823h-338v-823h-310z
M1149 -230q0 -32 -13 -60.5t-35.5 -50t-52.5 -34t-64 -12.5q-33 0 -62 12.5t-50.5 34t-34.5 50t-13 60.5q0 33 13 61.5t34.5 50t50.5 34t62 12.5q34 0 64 -12.5t52.5 -34t35.5 -50t13 -61.5z" />
    <glyph glyph-name="_2306" unicode="f&#x1e2d;" horiz-adv-x="1253" 
d="M36 0zM182 0v824l-68 14q-35 8 -56.5 25t-21.5 50v122h146v15q0 94 32.5 177.5t100.5 145t173.5 97.5t251.5 36q45 0 93 -4.5t83 -13.5l-10 -157q-2 -25 -25 -33t-49 -8q-104 0 -172 -16t-107.5 -47.5t-55 -78.5t-15.5 -108v-5h658v-1035h-310v823h-338v-823h-310z
M1088 -131q24 0 39 12.5t15 53.5h188q0 -63 -17.5 -113.5t-48.5 -86t-73 -54.5t-91 -19q-37 0 -69 11.5t-59.5 25.5t-50 25.5t-39.5 11.5q-24 0 -38 -13.5t-14 -54.5h-190q0 63 18 113.5t49 86.5t73 55.5t90 19.5q37 0 69.5 -11.5t59.5 -25.5t49.5 -25.5t39.5 -11.5z" />
    <glyph glyph-name="_2307" unicode="f&#x268;" horiz-adv-x="1298" 
d="M830 580v243h-338v-823h-310v824l-68 14q-35 8 -56.5 25t-21.5 50v122h146v15q0 94 32.5 177.5t100.5 145t173.5 97.5t251.5 36q45 0 93 -4.5t83 -13.5l-10 -157q-2 -25 -25 -33t-49 -8q-104 0 -172 -16t-107.5 -47.5t-55 -78.5t-15.5 -108v-5h658v-455h132v-212h-132
v-368h-310v368h-121v212h121z" />
    <glyph glyph-name="_2308" unicode="f&#xed;" horiz-adv-x="1252" 
d="M36 0zM182 0v824l-68 14q-35 8 -56.5 25t-21.5 50v122h146v105q0 81 22 146.5t64.5 111t104.5 70t143 24.5q30 0 54.5 -3t48.5 -11v-163q0 -23 -17.5 -31.5t-38.5 -8.5q-47 0 -64 -30.5t-17 -103.5v-106h658v-1035h-310v823h-338v-823h-310zM1380 1473l-260 -263
q-23 -23 -44 -32.5t-56 -9.5h-186l136 245q17 29 40 44.5t70 15.5h300z" />
    <glyph glyph-name="_2309" unicode="f&#x1ec9;" horiz-adv-x="1252" 
d="M36 0zM182 0v824l-68 14q-35 8 -56.5 25t-21.5 50v122h146v105q0 81 22 146.5t64.5 111t104.5 70t143 24.5q30 0 54.5 -3t48.5 -11v-163q0 -23 -17.5 -31.5t-38.5 -8.5q-47 0 -64 -30.5t-17 -103.5v-106h658v-1035h-310v823h-338v-823h-310zM738 1466q35 25 100 42
t140 17q115 0 171 -42t56 -106q0 -55 -36 -97.5t-90 -68.5l-27 -91h-147v164q51 7 67 24t16 36t-12 30t-38 11q-17 0 -32 -4t-27.5 -8.5t-24 -8.5t-21.5 -4q-14 0 -22.5 7.5t-16.5 19.5z" />
    <glyph glyph-name="_2313" unicode="ff&#x1ecb;" horiz-adv-x="1917" 
d="M36 0zM182 0v824l-68 14q-35 8 -56.5 25t-21.5 50v122h146v39q0 89 28.5 161.5t82 123.5t130.5 78.5t175 27.5q38 0 70 -4.5t67 -13.5l-6 -151q-2 -32 -26.5 -44.5t-50.5 -12.5q-41 0 -73 -8t-53.5 -28t-32.5 -53.5t-11 -84.5v-30h364v15q0 94 32.5 177.5t100.5 145
t173.5 97.5t251.5 36q45 0 93 -4.5t83 -13.5l-10 -157q-2 -25 -25 -33t-49 -8q-104 0 -172 -16t-107.5 -47.5t-55 -78.5t-15.5 -108v-5h658v-1035h-310v823h-338v-823h-310v823h-354v-823h-310zM1818 -230q0 -32 -13 -60.5t-35.5 -50t-52.5 -34t-64 -12.5q-33 0 -62 12.5
t-50.5 34t-34.5 50t-13 60.5q0 33 13 61.5t34.5 50t50.5 34t62 12.5q34 0 64 -12.5t52.5 -34t35.5 -50t13 -61.5z" />
    <glyph glyph-name="_2314" unicode="ff&#x1e2d;" horiz-adv-x="1917" 
d="M36 0zM182 0v824l-68 14q-35 8 -56.5 25t-21.5 50v122h146v39q0 89 28.5 161.5t82 123.5t130.5 78.5t175 27.5q38 0 70 -4.5t67 -13.5l-6 -151q-2 -32 -26.5 -44.5t-50.5 -12.5q-41 0 -73 -8t-53.5 -28t-32.5 -53.5t-11 -84.5v-30h364v15q0 94 32.5 177.5t100.5 145
t173.5 97.5t251.5 36q45 0 93 -4.5t83 -13.5l-10 -157q-2 -25 -25 -33t-49 -8q-104 0 -172 -16t-107.5 -47.5t-55 -78.5t-15.5 -108v-5h658v-1035h-310v823h-338v-823h-310v823h-354v-823h-310zM1757 -131q24 0 39 12.5t15 53.5h188q0 -63 -17.5 -113.5t-48.5 -86t-73 -54.5
t-91 -19q-37 0 -69 11.5t-59.5 25.5t-50 25.5t-39.5 11.5q-24 0 -38 -13.5t-14 -54.5h-190q0 63 18 113.5t49 86.5t73 55.5t90 19.5q37 0 69.5 -11.5t59.5 -25.5t49.5 -25.5t39.5 -11.5z" />
    <glyph glyph-name="_2315" unicode="ff&#x268;" horiz-adv-x="1967" 
d="M1494 580v243h-338v-823h-310v823h-354v-823h-310v824l-68 14q-35 8 -56.5 25t-21.5 50v122h146v39q0 89 28.5 161.5t82 123.5t130.5 78.5t175 27.5q38 0 70 -4.5t67 -13.5l-6 -151q-2 -32 -26.5 -44.5t-50.5 -12.5q-41 0 -73 -8t-53.5 -28t-32.5 -53.5t-11 -84.5v-30
h364v15q0 94 32.5 177.5t100.5 145t173.5 97.5t251.5 36q45 0 93 -4.5t83 -13.5l-10 -157q-2 -25 -25 -33t-49 -8q-104 0 -172 -16t-107.5 -47.5t-55 -78.5t-15.5 -108v-5h658v-455h135v-212h-135v-368h-310v368h-118v212h118z" />
    <glyph glyph-name="_2316" unicode="ff&#xed;" horiz-adv-x="1916" 
d="M36 0zM1494 0v823h-338v-823h-310v823h-354v-823h-310v824l-68 14q-35 8 -56.5 25t-21.5 50v122h146v39q0 89 28.5 161.5t82 123.5t130.5 78.5t175 27.5q38 0 70 -4.5t67 -13.5l-6 -151q-2 -32 -26.5 -44.5t-50.5 -12.5q-41 0 -73 -8t-53.5 -28t-32.5 -53.5t-11 -84.5
v-30h364v105q0 81 22 146.5t64.5 111t104.5 70t143 24.5q30 0 54.5 -3t48.5 -11v-163q0 -23 -17.5 -31.5t-38.5 -8.5q-47 0 -64 -30.5t-17 -103.5v-106h658v-1035h-310zM2049 1473l-260 -263q-23 -23 -44 -32.5t-56 -9.5h-186l136 245q17 29 40 44.5t70 15.5h300z" />
    <glyph glyph-name="_2317" unicode="ff&#x1ec9;" horiz-adv-x="1908" 
d="M36 0zM1494 0v823h-338v-823h-310v823h-354v-823h-310v824l-68 14q-35 8 -56.5 25t-21.5 50v122h146v39q0 89 28.5 161.5t82 123.5t130.5 78.5t175 27.5q38 0 70 -4.5t67 -13.5l-6 -151q-2 -32 -26.5 -44.5t-50.5 -12.5q-41 0 -73 -8t-53.5 -28t-32.5 -53.5t-11 -84.5
v-30h364v105q0 81 22 146.5t64.5 111t104.5 70t143 24.5q30 0 54.5 -3t48.5 -11v-163q0 -23 -17.5 -31.5t-38.5 -8.5q-47 0 -64 -30.5t-17 -103.5v-106h658v-1035h-310zM1407 1466q35 25 100 42t140 17q115 0 171 -42t56 -106q0 -55 -36 -97.5t-90 -68.5l-27 -91h-147v164
q51 7 67 24t16 36t-12 30t-38 11q-17 0 -32 -4t-27.5 -8.5t-24 -8.5t-21.5 -4q-14 0 -22.5 7.5t-16.5 19.5z" />
    <glyph glyph-name="_2321" unicode="f&#x13a;" horiz-adv-x="1265" 
d="M36 0zM182 0v824l-68 14q-35 8 -56.5 25t-21.5 50v122h146v36q0 79 26 154.5t80 134t138 94t200 35.5q98 0 184.5 -6t175.5 -6h174v-1477h-308v1269q-51 2 -98.5 4.5t-77.5 2.5q-95 0 -144.5 -52.5t-49.5 -152.5v-36h224v-212h-214v-823h-310zM1467 1867l-323 -285
q-12 -11 -23 -17t-23 -9t-25.5 -4t-30.5 -1h-226l189 270q12 16 23.5 25.5t25 14t31 5.5t40.5 1h342z" />
    <glyph glyph-name="_2471" unicode="ti" horiz-adv-x="1338" 
d="M26 0zM1226 1035v-1035h-310v823h-434v-515q0 -36 17.5 -59.5t50.5 -23.5q17 0 28.5 3.5t20 8t16 8t17.5 3.5q14 0 22.5 -6.5t17.5 -20.5l94 -147q-60 -45 -135 -67.5t-155 -22.5q-74 0 -130.5 21.5t-95 61t-58.5 95.5t-20 125v536h-88q-24 0 -41 15.5t-17 45.5v121
l165 32l61 253q12 48 68 48h162v-303h744zM1269 1322q0 -37 -15 -70t-41 -57.5t-60.5 -38.5t-73.5 -14q-38 0 -71 14t-58.5 38.5t-40 57.5t-14.5 70t14.5 70.5t40 58t58.5 39t71 14.5q39 0 73.5 -14.5t60.5 -39t41 -58t15 -70.5z" />
    <glyph glyph-name="_2472" unicode="t&#xec;" horiz-adv-x="1338" 
d="M26 0zM1226 1035v-1035h-310v823h-434v-515q0 -36 17.5 -59.5t50.5 -23.5q17 0 28.5 3.5t20 8t16 8t17.5 3.5q14 0 22.5 -6.5t17.5 -20.5l94 -147q-60 -45 -135 -67.5t-155 -22.5q-74 0 -130.5 21.5t-95 61t-58.5 95.5t-20 125v536h-88q-24 0 -41 15.5t-17 45.5v121
l165 32l61 253q12 48 68 48h162v-303h744zM1003 1473q47 0 70 -15.5t40 -44.5l136 -245h-176q-35 0 -56 9.5t-44 32.5l-260 263h290z" />
    <glyph glyph-name="_2473" unicode="t&#xed;" horiz-adv-x="1338" 
d="M26 0zM1226 1035v-1035h-310v823h-434v-515q0 -36 17.5 -59.5t50.5 -23.5q17 0 28.5 3.5t20 8t16 8t17.5 3.5q14 0 22.5 -6.5t17.5 -20.5l94 -147q-60 -45 -135 -67.5t-155 -22.5q-74 0 -130.5 21.5t-95 61t-58.5 95.5t-20 125v536h-88q-24 0 -41 15.5t-17 45.5v121
l165 32l61 253q12 48 68 48h162v-303h744zM1477 1473l-260 -263q-23 -23 -44 -32.5t-56 -9.5h-186l136 245q17 29 40 44.5t70 15.5h300z" />
    <glyph glyph-name="_2474" unicode="t&#xee;" horiz-adv-x="1338" 
d="M26 0zM1226 1035v-1035h-310v823h-434v-515q0 -36 17.5 -59.5t50.5 -23.5q17 0 28.5 3.5t20 8t16 8t17.5 3.5q14 0 22.5 -6.5t17.5 -20.5l94 -147q-60 -45 -135 -67.5t-155 -22.5q-74 0 -130.5 21.5t-95 61t-58.5 95.5t-20 125v536h-88q-24 0 -41 15.5t-17 45.5v121
l165 32l61 253q12 48 68 48h162v-303h744zM1461 1168h-206q-18 0 -35 5.5t-34 22.5l-75 83l-12.5 12.5t-12.5 14.5q-6 -8 -12.5 -15t-12.5 -12l-77 -83q-15 -14 -33 -21t-36 -7h-214l234 289h292z" />
    <glyph glyph-name="_2475" unicode="t&#xef;" horiz-adv-x="1338" 
d="M26 0zM1226 1035v-1035h-310v823h-434v-515q0 -36 17.5 -59.5t50.5 -23.5q17 0 28.5 3.5t20 8t16 8t17.5 3.5q14 0 22.5 -6.5t17.5 -20.5l94 -147q-60 -45 -135 -67.5t-155 -22.5q-74 0 -130.5 21.5t-95 61t-58.5 95.5t-20 125v536h-88q-24 0 -41 15.5t-17 45.5v121
l165 32l61 253q12 48 68 48h162v-303h744zM1059 1295q0 -32 -13 -60t-35.5 -48.5t-52 -32.5t-63.5 -12q-32 0 -60.5 12t-50 32.5t-34.5 48.5t-13 60q0 33 13 62t34.5 50.5t50 34t60.5 12.5q34 0 63.5 -12.5t52 -34t35.5 -50.5t13 -62zM1425 1295q0 -32 -12.5 -60
t-34.5 -48.5t-51.5 -32.5t-63.5 -12q-33 0 -62 12t-51 32.5t-34.5 48.5t-12.5 60q0 33 12.5 62t34.5 50.5t51 34t62 12.5q34 0 63.5 -12.5t51.5 -34t34.5 -50.5t12.5 -62z" />
    <glyph glyph-name="_2476" unicode="t&#x12b;" horiz-adv-x="1338" 
d="M26 0zM1226 1035v-1035h-310v823h-434v-515q0 -36 17.5 -59.5t50.5 -23.5q17 0 28.5 3.5t20 8t16 8t17.5 3.5q14 0 22.5 -6.5t17.5 -20.5l94 -147q-60 -45 -135 -67.5t-155 -22.5q-74 0 -130.5 21.5t-95 61t-58.5 95.5t-20 125v536h-88q-24 0 -41 15.5t-17 45.5v121
l165 32l61 253q12 48 68 48h162v-303h744zM771 1391h620v-190h-620v190z" />
    <glyph glyph-name="_2477" unicode="t&#x129;" horiz-adv-x="1338" 
d="M26 0zM1226 1035v-1035h-310v823h-434v-515q0 -36 17.5 -59.5t50.5 -23.5q17 0 28.5 3.5t20 8t16 8t17.5 3.5q14 0 22.5 -6.5t17.5 -20.5l94 -147q-60 -45 -135 -67.5t-155 -22.5q-74 0 -130.5 21.5t-95 61t-58.5 95.5t-20 125v536h-88q-24 0 -41 15.5t-17 45.5v121
l165 32l61 253q12 48 68 48h162v-303h744zM1185 1387q24 0 39 12.5t15 53.5h188q0 -63 -17.5 -113.5t-48.5 -86t-73 -54.5t-91 -19q-37 0 -69 11.5t-59.5 25.5t-50 25.5t-39.5 11.5q-24 0 -38 -13.5t-14 -54.5h-190q0 63 18 113.5t49 86.5t73 55.5t90 19.5q37 0 69.5 -11.5
t59.5 -25.5t49.5 -25.5t39.5 -11.5z" />
    <glyph glyph-name="_2478" unicode="t&#x12d;" horiz-adv-x="1338" 
d="M26 0zM1226 1035v-1035h-310v823h-434v-515q0 -36 17.5 -59.5t50.5 -23.5q17 0 28.5 3.5t20 8t16 8t17.5 3.5q14 0 22.5 -6.5t17.5 -20.5l94 -147q-60 -45 -135 -67.5t-155 -22.5q-74 0 -130.5 21.5t-95 61t-58.5 95.5t-20 125v536h-88q-24 0 -41 15.5t-17 45.5v121
l165 32l61 253q12 48 68 48h162v-303h744zM1081 1159q-94 0 -157 24t-101 64.5t-54 94.5t-16 115h216q0 -27 4.5 -48t17 -34.5t34 -20.5t56.5 -7q34 0 56 7t34.5 20.5t17 34.5t4.5 48h216q0 -61 -16 -115t-54 -94.5t-101 -64.5t-157 -24z" />
    <glyph glyph-name="_2479" unicode="t&#x1d0;" horiz-adv-x="1338" 
d="M26 0zM1226 1035v-1035h-310v823h-434v-515q0 -36 17.5 -59.5t50.5 -23.5q17 0 28.5 3.5t20 8t16 8t17.5 3.5q14 0 22.5 -6.5t17.5 -20.5l94 -147q-60 -45 -135 -67.5t-155 -22.5q-74 0 -130.5 21.5t-95 61t-58.5 95.5t-20 125v536h-88q-24 0 -41 15.5t-17 45.5v121
l165 32l61 253q12 48 68 48h162v-303h744zM701 1457h214q18 0 34.5 -5.5t25.5 -13.5l84 -91l26 -30q11 15 26 30l84 91q9 6 25.5 12.5t34.5 6.5h206l-234 -289h-292z" />
    <glyph glyph-name="_2480" unicode="t&#x1e2d;" horiz-adv-x="1338" 
d="M26 0zM1226 1035v-1035h-310v823h-434v-515q0 -36 17.5 -59.5t50.5 -23.5q17 0 28.5 3.5t20 8t16 8t17.5 3.5q14 0 22.5 -6.5t17.5 -20.5l94 -147q-60 -45 -135 -67.5t-155 -22.5q-74 0 -130.5 21.5t-95 61t-58.5 95.5t-20 125v536h-88q-24 0 -41 15.5t-17 45.5v121
l165 32l61 253q12 48 68 48h162v-303h744zM1269 1322q0 -37 -15 -70t-41 -57.5t-60.5 -38.5t-73.5 -14q-38 0 -71 14t-58.5 38.5t-40 57.5t-14.5 70t14.5 70.5t40 58t58.5 39t71 14.5q39 0 73.5 -14.5t60.5 -39t41 -58t15 -70.5zM1184 -131q24 0 39 12.5t15 53.5h188
q0 -63 -17.5 -113.5t-48.5 -86t-73 -54.5t-91 -19q-37 0 -69 11.5t-59.5 25.5t-50 25.5t-39.5 11.5q-24 0 -38 -13.5t-14 -54.5h-190q0 63 18 113.5t49 86.5t73 55.5t90 19.5q37 0 69.5 -11.5t59.5 -25.5t49.5 -25.5t39.5 -11.5z" />
    <glyph glyph-name="_2482" unicode="t&#x1e2f;" horiz-adv-x="1338" 
d="M26 0zM1226 1035v-1035h-310v823h-434v-515q0 -36 17.5 -59.5t50.5 -23.5q17 0 28.5 3.5t20 8t16 8t17.5 3.5q14 0 22.5 -6.5t17.5 -20.5l94 -147q-60 -45 -135 -67.5t-155 -22.5q-74 0 -130.5 21.5t-95 61t-58.5 95.5t-20 125v536h-88q-24 0 -41 15.5t-17 45.5v121
l165 32l61 253q12 48 68 48h162v-303h744zM1516 1801l-260 -263q-23 -23 -44 -32.5t-56 -9.5h-186l136 245q17 29 40 44.5t70 15.5h300zM1029 1295q0 -32 -13 -60t-35.5 -48.5t-52 -32.5t-63.5 -12q-32 0 -60.5 12t-50 32.5t-34.5 48.5t-13 60q0 33 13 62t34.5 50.5t50 34
t60.5 12.5q34 0 63.5 -12.5t52 -34t35.5 -50.5t13 -62zM1455 1295q0 -32 -12.5 -60t-34.5 -48.5t-51.5 -32.5t-63.5 -12q-33 0 -62 12t-51 32.5t-34.5 48.5t-12.5 60q0 33 12.5 62t34.5 50.5t51 34t62 12.5q34 0 63.5 -12.5t51.5 -34t34.5 -50.5t12.5 -62z" />
    <glyph glyph-name="_2483" unicode="t&#x268;" horiz-adv-x="1399" 
d="M916 580v243h-434v-515q0 -36 17.5 -59.5t50.5 -23.5q17 0 28.5 3.5t20 8t16 8t17.5 3.5q14 0 22.5 -6.5t17.5 -20.5l94 -147q-60 -45 -135 -67.5t-155 -22.5q-74 0 -130.5 21.5t-95 61t-58.5 95.5t-20 125v536h-88q-24 0 -41 15.5t-17 45.5v121l165 32l61 253
q12 48 68 48h162v-303h744v-455h142v-212h-142v-368h-310v368h-111v212h111zM1269 1322q0 -37 -15 -70t-41 -57.5t-60.5 -38.5t-73.5 -14q-38 0 -71 14t-58.5 38.5t-40 57.5t-14.5 70t14.5 70.5t40 58t58.5 39t71 14.5q39 0 73.5 -14.5t60.5 -39t41 -58t15 -70.5z" />
    <glyph glyph-name="_2485" unicode="t&#x20b;" horiz-adv-x="1338" 
d="M26 0zM1226 1035v-1035h-310v823h-434v-515q0 -36 17.5 -59.5t50.5 -23.5q17 0 28.5 3.5t20 8t16 8t17.5 3.5q14 0 22.5 -6.5t17.5 -20.5l94 -147q-60 -45 -135 -67.5t-155 -22.5q-74 0 -130.5 21.5t-95 61t-58.5 95.5t-20 125v536h-88q-24 0 -41 15.5t-17 45.5v121
l165 32l61 253q12 48 68 48h162v-303h744zM1081 1472q94 0 157 -24t101 -64.5t54 -94.5t16 -115h-216q0 27 -4.5 48t-17 34.5t-34.5 20.5t-56 7q-35 0 -56.5 -7t-34 -20.5t-17 -34.5t-4.5 -48h-216q0 61 16 115t54 94.5t101 64.5t157 24z" />
    <glyph glyph-name="_2486" unicode="t&#x209;" horiz-adv-x="1338" 
d="M26 0zM1226 1035v-1035h-310v823h-434v-515q0 -36 17.5 -59.5t50.5 -23.5q17 0 28.5 3.5t20 8t16 8t17.5 3.5q14 0 22.5 -6.5t17.5 -20.5l94 -147q-60 -45 -135 -67.5t-155 -22.5q-74 0 -130.5 21.5t-95 61t-58.5 95.5t-20 125v536h-88q-24 0 -41 15.5t-17 45.5v121
l165 32l61 253q12 48 68 48h162v-303h744zM1135 1473q47 0 71 -15.5t39 -44.5l116 -245h-126q-35 0 -57.5 8.5t-42.5 33.5l-200 263h200zM775 1473q23 0 39.5 -4t29 -12t22 -19t19.5 -25l176 -245h-146q-35 0 -56 9.5t-44 32.5l-260 263h220z" />
    <glyph glyph-name="_2487" unicode="tti" horiz-adv-x="1993" 
d="M26 0zM476 -16q-74 0 -130.5 21.5t-95 61t-58.5 95.5t-20 125v536h-88q-24 0 -41 15.5t-17 45.5v121l165 32l61 253q12 48 68 48h162v-303h383l62 255q12 48 68 48h162v-303h724v-1035h-310v823h-414v-515q0 -36 17.5 -59.5t50.5 -23.5q17 0 28.5 3.5t20 8t16 8t17.5 3.5
q14 0 22.5 -6.5t17.5 -20.5l94 -147q-60 -45 -135 -67.5t-155 -22.5q-74 0 -130.5 21.5t-95 61t-58.5 95.5t-20 125v536h-365v-515q0 -36 17.5 -59.5t50.5 -23.5q17 0 28.5 3.5t20 8t16 8t17.5 3.5q14 0 22.5 -6.5t17.5 -20.5l94 -147q-60 -45 -135 -67.5t-155 -22.5z
M1918 1322q0 -37 -15 -70t-41 -57.5t-60.5 -38.5t-73.5 -14q-38 0 -71 14t-58.5 38.5t-40 57.5t-14.5 70t14.5 70.5t40 58t58.5 39t71 14.5q39 0 73.5 -14.5t60.5 -39t41 -58t15 -70.5z" />
    <glyph glyph-name="_2488" unicode="tt&#xec;" horiz-adv-x="1993" 
d="M26 0zM476 -16q-74 0 -130.5 21.5t-95 61t-58.5 95.5t-20 125v536h-88q-24 0 -41 15.5t-17 45.5v121l165 32l61 253q12 48 68 48h162v-303h383l62 255q12 48 68 48h162v-303h724v-1035h-310v823h-414v-515q0 -36 17.5 -59.5t50.5 -23.5q17 0 28.5 3.5t20 8t16 8t17.5 3.5
q14 0 22.5 -6.5t17.5 -20.5l94 -147q-60 -45 -135 -67.5t-155 -22.5q-74 0 -130.5 21.5t-95 61t-58.5 95.5t-20 125v536h-365v-515q0 -36 17.5 -59.5t50.5 -23.5q17 0 28.5 3.5t20 8t16 8t17.5 3.5q14 0 22.5 -6.5t17.5 -20.5l94 -147q-60 -45 -135 -67.5t-155 -22.5z
M1652 1473q47 0 70 -15.5t40 -44.5l136 -245h-176q-35 0 -56 9.5t-44 32.5l-260 263h290z" />
    <glyph glyph-name="_2489" unicode="tt&#xed;" horiz-adv-x="1993" 
d="M26 0zM476 -16q-74 0 -130.5 21.5t-95 61t-58.5 95.5t-20 125v536h-88q-24 0 -41 15.5t-17 45.5v121l165 32l61 253q12 48 68 48h162v-303h383l62 255q12 48 68 48h162v-303h724v-1035h-310v823h-414v-515q0 -36 17.5 -59.5t50.5 -23.5q17 0 28.5 3.5t20 8t16 8t17.5 3.5
q14 0 22.5 -6.5t17.5 -20.5l94 -147q-60 -45 -135 -67.5t-155 -22.5q-74 0 -130.5 21.5t-95 61t-58.5 95.5t-20 125v536h-365v-515q0 -36 17.5 -59.5t50.5 -23.5q17 0 28.5 3.5t20 8t16 8t17.5 3.5q14 0 22.5 -6.5t17.5 -20.5l94 -147q-60 -45 -135 -67.5t-155 -22.5z
M2126 1473l-260 -263q-23 -23 -44 -32.5t-56 -9.5h-186l136 245q17 29 40 44.5t70 15.5h300z" />
    <glyph glyph-name="_2490" unicode="tt&#xee;" horiz-adv-x="1993" 
d="M26 0zM476 -16q-74 0 -130.5 21.5t-95 61t-58.5 95.5t-20 125v536h-88q-24 0 -41 15.5t-17 45.5v121l165 32l61 253q12 48 68 48h162v-303h383l62 255q12 48 68 48h162v-303h724v-1035h-310v823h-414v-515q0 -36 17.5 -59.5t50.5 -23.5q17 0 28.5 3.5t20 8t16 8t17.5 3.5
q14 0 22.5 -6.5t17.5 -20.5l94 -147q-60 -45 -135 -67.5t-155 -22.5q-74 0 -130.5 21.5t-95 61t-58.5 95.5t-20 125v536h-365v-515q0 -36 17.5 -59.5t50.5 -23.5q17 0 28.5 3.5t20 8t16 8t17.5 3.5q14 0 22.5 -6.5t17.5 -20.5l94 -147q-60 -45 -135 -67.5t-155 -22.5z
M2110 1168h-206q-18 0 -35 5.5t-34 22.5l-75 83l-12.5 12.5t-12.5 14.5q-6 -8 -12.5 -15t-12.5 -12l-77 -83q-15 -14 -33 -21t-36 -7h-214l234 289h292z" />
    <glyph glyph-name="_2491" unicode="tt&#xef;" horiz-adv-x="1993" 
d="M26 0zM476 -16q-74 0 -130.5 21.5t-95 61t-58.5 95.5t-20 125v536h-88q-24 0 -41 15.5t-17 45.5v121l165 32l61 253q12 48 68 48h162v-303h383l62 255q12 48 68 48h162v-303h724v-1035h-310v823h-414v-515q0 -36 17.5 -59.5t50.5 -23.5q17 0 28.5 3.5t20 8t16 8t17.5 3.5
q14 0 22.5 -6.5t17.5 -20.5l94 -147q-60 -45 -135 -67.5t-155 -22.5q-74 0 -130.5 21.5t-95 61t-58.5 95.5t-20 125v536h-365v-515q0 -36 17.5 -59.5t50.5 -23.5q17 0 28.5 3.5t20 8t16 8t17.5 3.5q14 0 22.5 -6.5t17.5 -20.5l94 -147q-60 -45 -135 -67.5t-155 -22.5z
M1708 1295q0 -32 -13 -60t-35.5 -48.5t-52 -32.5t-63.5 -12q-32 0 -60.5 12t-50 32.5t-34.5 48.5t-13 60q0 33 13 62t34.5 50.5t50 34t60.5 12.5q34 0 63.5 -12.5t52 -34t35.5 -50.5t13 -62zM2074 1295q0 -32 -12.5 -60t-34.5 -48.5t-51.5 -32.5t-63.5 -12q-33 0 -62 12
t-51 32.5t-34.5 48.5t-12.5 60q0 33 12.5 62t34.5 50.5t51 34t62 12.5q34 0 63.5 -12.5t51.5 -34t34.5 -50.5t12.5 -62z" />
    <glyph glyph-name="_2492" unicode="tt&#x12b;" horiz-adv-x="1993" 
d="M26 0zM476 -16q-74 0 -130.5 21.5t-95 61t-58.5 95.5t-20 125v536h-88q-24 0 -41 15.5t-17 45.5v121l165 32l61 253q12 48 68 48h162v-303h383l62 255q12 48 68 48h162v-303h724v-1035h-310v823h-414v-515q0 -36 17.5 -59.5t50.5 -23.5q17 0 28.5 3.5t20 8t16 8t17.5 3.5
q14 0 22.5 -6.5t17.5 -20.5l94 -147q-60 -45 -135 -67.5t-155 -22.5q-74 0 -130.5 21.5t-95 61t-58.5 95.5t-20 125v536h-365v-515q0 -36 17.5 -59.5t50.5 -23.5q17 0 28.5 3.5t20 8t16 8t17.5 3.5q14 0 22.5 -6.5t17.5 -20.5l94 -147q-60 -45 -135 -67.5t-155 -22.5z
M1420 1391h620v-190h-620v190z" />
    <glyph glyph-name="_2493" unicode="tt&#x129;" horiz-adv-x="1993" 
d="M26 0zM476 -16q-74 0 -130.5 21.5t-95 61t-58.5 95.5t-20 125v536h-88q-24 0 -41 15.5t-17 45.5v121l165 32l61 253q12 48 68 48h162v-303h383l62 255q12 48 68 48h162v-303h724v-1035h-310v823h-414v-515q0 -36 17.5 -59.5t50.5 -23.5q17 0 28.5 3.5t20 8t16 8t17.5 3.5
q14 0 22.5 -6.5t17.5 -20.5l94 -147q-60 -45 -135 -67.5t-155 -22.5q-74 0 -130.5 21.5t-95 61t-58.5 95.5t-20 125v536h-365v-515q0 -36 17.5 -59.5t50.5 -23.5q17 0 28.5 3.5t20 8t16 8t17.5 3.5q14 0 22.5 -6.5t17.5 -20.5l94 -147q-60 -45 -135 -67.5t-155 -22.5z
M1834 1387q24 0 39 12.5t15 53.5h188q0 -63 -17.5 -113.5t-48.5 -86t-73 -54.5t-91 -19q-37 0 -69 11.5t-59.5 25.5t-50 25.5t-39.5 11.5q-24 0 -38 -13.5t-14 -54.5h-190q0 63 18 113.5t49 86.5t73 55.5t90 19.5q37 0 69.5 -11.5t59.5 -25.5t49.5 -25.5t39.5 -11.5z" />
    <glyph glyph-name="_2494" unicode="tt&#x12d;" horiz-adv-x="1993" 
d="M26 0zM476 -16q-74 0 -130.5 21.5t-95 61t-58.5 95.5t-20 125v536h-88q-24 0 -41 15.5t-17 45.5v121l165 32l61 253q12 48 68 48h162v-303h383l62 255q12 48 68 48h162v-303h724v-1035h-310v823h-414v-515q0 -36 17.5 -59.5t50.5 -23.5q17 0 28.5 3.5t20 8t16 8t17.5 3.5
q14 0 22.5 -6.5t17.5 -20.5l94 -147q-60 -45 -135 -67.5t-155 -22.5q-74 0 -130.5 21.5t-95 61t-58.5 95.5t-20 125v536h-365v-515q0 -36 17.5 -59.5t50.5 -23.5q17 0 28.5 3.5t20 8t16 8t17.5 3.5q14 0 22.5 -6.5t17.5 -20.5l94 -147q-60 -45 -135 -67.5t-155 -22.5z
M1730 1159q-94 0 -157 24t-101 64.5t-54 94.5t-16 115h216q0 -27 4.5 -48t17 -34.5t34 -20.5t56.5 -7q34 0 56 7t34.5 20.5t17 34.5t4.5 48h216q0 -61 -16 -115t-54 -94.5t-101 -64.5t-157 -24z" />
    <glyph glyph-name="_2495" unicode="tt&#x1d0;" horiz-adv-x="1993" 
d="M26 0zM476 -16q-74 0 -130.5 21.5t-95 61t-58.5 95.5t-20 125v536h-88q-24 0 -41 15.5t-17 45.5v121l165 32l61 253q12 48 68 48h162v-303h383l62 255q12 48 68 48h162v-303h724v-1035h-310v823h-414v-515q0 -36 17.5 -59.5t50.5 -23.5q17 0 28.5 3.5t20 8t16 8t17.5 3.5
q14 0 22.5 -6.5t17.5 -20.5l94 -147q-60 -45 -135 -67.5t-155 -22.5q-74 0 -130.5 21.5t-95 61t-58.5 95.5t-20 125v536h-365v-515q0 -36 17.5 -59.5t50.5 -23.5q17 0 28.5 3.5t20 8t16 8t17.5 3.5q14 0 22.5 -6.5t17.5 -20.5l94 -147q-60 -45 -135 -67.5t-155 -22.5z
M1350 1457h214q18 0 34.5 -5.5t25.5 -13.5l84 -91l26 -30q11 15 26 30l84 91q9 6 25.5 12.5t34.5 6.5h206l-234 -289h-292z" />
    <glyph glyph-name="_2496" unicode="tt&#x1e2d;" horiz-adv-x="1993" 
d="M26 0zM476 -16q-74 0 -130.5 21.5t-95 61t-58.5 95.5t-20 125v536h-88q-24 0 -41 15.5t-17 45.5v121l165 32l61 253q12 48 68 48h162v-303h383l62 255q12 48 68 48h162v-303h724v-1035h-310v823h-414v-515q0 -36 17.5 -59.5t50.5 -23.5q17 0 28.5 3.5t20 8t16 8t17.5 3.5
q14 0 22.5 -6.5t17.5 -20.5l94 -147q-60 -45 -135 -67.5t-155 -22.5q-74 0 -130.5 21.5t-95 61t-58.5 95.5t-20 125v536h-365v-515q0 -36 17.5 -59.5t50.5 -23.5q17 0 28.5 3.5t20 8t16 8t17.5 3.5q14 0 22.5 -6.5t17.5 -20.5l94 -147q-60 -45 -135 -67.5t-155 -22.5z
M1836 -131q24 0 39 12.5t15 53.5h188q0 -63 -17.5 -113.5t-48.5 -86t-73 -54.5t-91 -19q-37 0 -69 11.5t-59.5 25.5t-50 25.5t-39.5 11.5q-24 0 -38 -13.5t-14 -54.5h-190q0 63 18 113.5t49 86.5t73 55.5t90 19.5q37 0 69.5 -11.5t59.5 -25.5t49.5 -25.5t39.5 -11.5z
M1918 1322q0 -37 -15 -70t-41 -57.5t-60.5 -38.5t-73.5 -14q-38 0 -71 14t-58.5 38.5t-40 57.5t-14.5 70t14.5 70.5t40 58t58.5 39t71 14.5q39 0 73.5 -14.5t60.5 -39t41 -58t15 -70.5z" />
    <glyph glyph-name="_2498" unicode="tt&#x1e2f;" horiz-adv-x="1993" 
d="M26 0zM476 -16q-74 0 -130.5 21.5t-95 61t-58.5 95.5t-20 125v536h-88q-24 0 -41 15.5t-17 45.5v121l165 32l61 253q12 48 68 48h162v-303h383l62 255q12 48 68 48h162v-303h724v-1035h-310v823h-414v-515q0 -36 17.5 -59.5t50.5 -23.5q17 0 28.5 3.5t20 8t16 8t17.5 3.5
q14 0 22.5 -6.5t17.5 -20.5l94 -147q-60 -45 -135 -67.5t-155 -22.5q-74 0 -130.5 21.5t-95 61t-58.5 95.5t-20 125v536h-365v-515q0 -36 17.5 -59.5t50.5 -23.5q17 0 28.5 3.5t20 8t16 8t17.5 3.5q14 0 22.5 -6.5t17.5 -20.5l94 -147q-60 -45 -135 -67.5t-155 -22.5z
M2165 1801l-260 -263q-23 -23 -44 -32.5t-56 -9.5h-186l136 245q17 29 40 44.5t70 15.5h300zM1678 1295q0 -32 -13 -60t-35.5 -48.5t-52 -32.5t-63.5 -12q-32 0 -60.5 12t-50 32.5t-34.5 48.5t-13 60q0 33 13 62t34.5 50.5t50 34t60.5 12.5q34 0 63.5 -12.5t52 -34
t35.5 -50.5t13 -62zM2104 1295q0 -32 -12.5 -60t-34.5 -48.5t-51.5 -32.5t-63.5 -12q-33 0 -62 12t-51 32.5t-34.5 48.5t-12.5 60q0 33 12.5 62t34.5 50.5t51 34t62 12.5q34 0 63.5 -12.5t51.5 -34t34.5 -50.5t12.5 -62z" />
    <glyph glyph-name="_2499" unicode="tt&#x268;" horiz-adv-x="2049" 
d="M1571 580v243h-414v-515q0 -36 17.5 -59.5t50.5 -23.5q17 0 28.5 3.5t20 8t16 8t17.5 3.5q14 0 22.5 -6.5t17.5 -20.5l94 -147q-60 -45 -135 -67.5t-155 -22.5q-74 0 -130.5 21.5t-95 61t-58.5 95.5t-20 125v536h-365v-515q0 -36 17.5 -59.5t50.5 -23.5q17 0 28.5 3.5
t20 8t16 8t17.5 3.5q14 0 22.5 -6.5t17.5 -20.5l94 -147q-60 -45 -135 -67.5t-155 -22.5q-74 0 -130.5 21.5t-95 61t-58.5 95.5t-20 125v536h-88q-24 0 -41 15.5t-17 45.5v121l165 32l61 253q12 48 68 48h162v-303h383l62 255q12 48 68 48h162v-303h724v-455h139v-212h-139
v-368h-310v368h-114v212h114zM1918 1322q0 -37 -15 -70t-41 -57.5t-60.5 -38.5t-73.5 -14q-38 0 -71 14t-58.5 38.5t-40 57.5t-14.5 70t14.5 70.5t40 58t58.5 39t71 14.5q39 0 73.5 -14.5t60.5 -39t41 -58t15 -70.5z" />
    <glyph glyph-name="_2501" unicode="tt&#x20b;" horiz-adv-x="1993" 
d="M26 0zM476 -16q-74 0 -130.5 21.5t-95 61t-58.5 95.5t-20 125v536h-88q-24 0 -41 15.5t-17 45.5v121l165 32l61 253q12 48 68 48h162v-303h383l62 255q12 48 68 48h162v-303h724v-1035h-310v823h-414v-515q0 -36 17.5 -59.5t50.5 -23.5q17 0 28.5 3.5t20 8t16 8t17.5 3.5
q14 0 22.5 -6.5t17.5 -20.5l94 -147q-60 -45 -135 -67.5t-155 -22.5q-74 0 -130.5 21.5t-95 61t-58.5 95.5t-20 125v536h-365v-515q0 -36 17.5 -59.5t50.5 -23.5q17 0 28.5 3.5t20 8t16 8t17.5 3.5q14 0 22.5 -6.5t17.5 -20.5l94 -147q-60 -45 -135 -67.5t-155 -22.5z
M1730 1472q94 0 157 -24t101 -64.5t54 -94.5t16 -115h-216q0 27 -4.5 48t-17 34.5t-34.5 20.5t-56 7q-35 0 -56.5 -7t-34 -20.5t-17 -34.5t-4.5 -48h-216q0 61 16 115t54 94.5t101 64.5t157 24z" />
    <glyph glyph-name="_2502" unicode="tt&#x209;" horiz-adv-x="1993" 
d="M26 0zM476 -16q-74 0 -130.5 21.5t-95 61t-58.5 95.5t-20 125v536h-88q-24 0 -41 15.5t-17 45.5v121l165 32l61 253q12 48 68 48h162v-303h383l62 255q12 48 68 48h162v-303h724v-1035h-310v823h-414v-515q0 -36 17.5 -59.5t50.5 -23.5q17 0 28.5 3.5t20 8t16 8t17.5 3.5
q14 0 22.5 -6.5t17.5 -20.5l94 -147q-60 -45 -135 -67.5t-155 -22.5q-74 0 -130.5 21.5t-95 61t-58.5 95.5t-20 125v536h-365v-515q0 -36 17.5 -59.5t50.5 -23.5q17 0 28.5 3.5t20 8t16 8t17.5 3.5q14 0 22.5 -6.5t17.5 -20.5l94 -147q-60 -45 -135 -67.5t-155 -22.5z
M1784 1473q47 0 71 -15.5t39 -44.5l116 -245h-126q-35 0 -57.5 8.5t-42.5 33.5l-200 263h200zM1424 1473q23 0 39.5 -4t29 -12t22 -19t19.5 -25l176 -245h-146q-35 0 -56 9.5t-44 32.5l-260 263h220z" />
    <glyph glyph-name=".notdef" horiz-adv-x="1123" 
d="M230 1152q62 48 140 79.5t183 31.5q78 0 137.5 -20t100.5 -56t62 -87t21 -113q0 -55 -13 -95t-32.5 -69t-43 -50t-45.5 -39t-39 -35t-23 -38l-27 -90h-212l-22 112q-8 39 1.5 66.5t28.5 49t43.5 39t46 36.5t36 41t14.5 53q0 23 -13 38.5t-49 15.5q-32 0 -53 -5
t-36.5 -11.5t-29 -11.5t-31.5 -5q-43 0 -63 36zM374 331q0 33 12 61.5t34 49.5t51 33t64 12q33 0 62 -12t50.5 -33t34 -49.5t12.5 -61.5t-12.5 -61.5t-34 -49.5t-50.5 -33t-62 -12q-35 0 -64 12t-51 33t-34 49.5t-12 61.5zM40 1457h1043v-1457h-1043v1457zM117 80h879v1297
h-879v-1297z" />
    <glyph glyph-name="uni0000" horiz-adv-x="0" 
 />
    <glyph glyph-name="uni0000" horiz-adv-x="0" 
 />
    <glyph glyph-name="space" unicode=" " horiz-adv-x="462" 
 />
    <glyph glyph-name="space" unicode="&#xa0;" horiz-adv-x="462" 
 />
    <glyph glyph-name="A" unicode="A" horiz-adv-x="1422" 
d="M1448 0h-262q-44 0 -71 20.5t-41 52.5l-86 254h-554l-86 -254q-11 -28 -39.5 -50.5t-70.5 -22.5h-264l564 1457h346zM512 557h398l-134 399q-15 38 -32 89.5t-34 111.5q-16 -61 -32.5 -113t-31.5 -90z" />
    <glyph glyph-name="AE" unicode="&#xc6;" horiz-adv-x="1870" 
d="M683 1457h1120v-260h-645l41 -340h464v-250h-434l42 -347h532v-260h-820l-40 327h-483l-111 -254q-16 -32 -48.5 -52.5t-77.5 -20.5h-256zM561 557h354l-78 652q-20 -59 -40 -110t-40 -94z" />
    <glyph glyph-name="B" unicode="B" horiz-adv-x="1339" 
d="M141 0v1457h536q151 0 257 -28t173 -79t97.5 -124t30.5 -163q0 -49 -14 -94.5t-44 -85.5t-77 -72.5t-113 -56.5q144 -35 213 -113.5t69 -201.5q0 -93 -36 -173t-105.5 -139.5t-171.5 -93t-233 -33.5h-582zM479 618v-363h238q67 0 109.5 17t66.5 44t33 61t9 69
q0 40 -10.5 72t-36 54t-67.5 34t-106 12h-236zM479 844h176q56 0 101 8t76.5 28t48 55t16.5 88q0 52 -13 86.5t-40 55.5t-68.5 30t-98.5 9h-198v-360z" />
    <glyph glyph-name="C" unicode="C" horiz-adv-x="1311" 
d="M1123 377q12 0 24 -4.5t23 -15.5l134 -141q-88 -115 -220.5 -173.5t-313.5 -58.5q-166 0 -297.5 56.5t-223 156t-140.5 236t-49 296.5q0 163 53 299.5t149 235.5t230 154t295 55q82 0 154.5 -14.5t135.5 -40t116 -61.5t94 -78l-114 -153q-11 -14 -26 -25.5t-42 -11.5
q-18 0 -34 8t-34 19.5t-39.5 25t-51 25t-69 19.5t-92.5 8q-84 0 -153.5 -31t-120 -90.5t-78 -146t-27.5 -197.5q0 -112 30.5 -199t83 -146.5t122.5 -90.5t150 -31q46 0 84 4.5t71 15t62 28t59 44.5q12 10 26 16.5t29 6.5z" />
    <glyph glyph-name="Ccedilla" unicode="&#xc7;" horiz-adv-x="1311" 
d="M653 -220q15 0 29 -3.5t35 -3.5q26 0 37 9t11 20q0 22 -30.5 32t-103.5 21l46 134q-145 15 -259.5 77t-194 160t-121.5 226t-42 277q0 163 53 299.5t149 235.5t230 154t295 55q82 0 154.5 -14.5t135.5 -40t116 -61.5t94 -78l-114 -153q-11 -14 -26 -25.5t-42 -11.5
q-18 0 -34 8t-34 19.5t-39.5 25t-51 25t-69 19.5t-92.5 8q-84 0 -153.5 -31t-120 -90.5t-78 -146t-27.5 -197.5q0 -112 30.5 -199t83 -146.5t122.5 -90.5t150 -31q46 0 84 4.5t71 15t62 28t59 44.5q12 10 26 16.5t29 6.5q12 0 24 -4.5t23 -15.5l134 -141q-78 -101 -190 -159
t-262 -70l-10 -36q48 -12 79.5 -28.5t50.5 -36t27 -42.5t8 -48q0 -35 -19.5 -63t-54.5 -48t-84.5 -30.5t-109.5 -10.5q-41 0 -75.5 4t-72.5 12l28 93q6 27 34 27z" />
    <glyph glyph-name="D" unicode="D" horiz-adv-x="1522" 
d="M1463 729q0 -158 -54.5 -291.5t-153.5 -231t-238.5 -152t-309.5 -54.5h-566v1457h566q170 0 309.5 -55t238.5 -152t153.5 -230.5t54.5 -290.5zM1117 729q0 108 -28 195t-80.5 147.5t-128.5 93t-173 32.5h-226v-937h226q97 0 173 32.5t128.5 93t80.5 147.5t28 196z" />
    <glyph glyph-name="E" unicode="E" horiz-adv-x="1146" 
d="M1079 1457v-260h-598v-340h458v-250h-458v-347h598v-260h-938v1457h938z" />
    <glyph glyph-name="F" unicode="F" horiz-adv-x="1133" 
d="M1079 1457v-260h-598v-369h498v-261h-498v-567h-340v1457h938z" />
    <glyph glyph-name="G" unicode="G" horiz-adv-x="1445" 
d="M1359 140q-112 -82 -238.5 -119t-264.5 -37q-180 0 -327.5 56.5t-252.5 156t-162 236t-57 296.5q0 163 54 299.5t154.5 235.5t243 154t318.5 55q91 0 171 -15t147.5 -41t123.5 -62t100 -78l-98 -149q-23 -35 -59.5 -43t-78.5 18q-40 24 -75.5 41.5t-72.5 28.5t-78 16
t-92 5q-95 0 -171 -33.5t-129.5 -94.5t-82.5 -146.5t-29 -190.5q0 -116 32 -206t90.5 -152t140 -94.5t180.5 -32.5q61 0 110.5 12t96.5 32v221h-144q-32 0 -50 17t-18 43v186h518v-615v0z" />
    <glyph glyph-name="H" unicode="H" horiz-adv-x="1554" 
d="M1413 0h-340v616h-592v-616h-340v1457h340v-609h592v609h340v-1457z" />
    <glyph glyph-name="I" unicode="I" horiz-adv-x="622" 
d="M481 0h-340v1457h340v-1457z" />
    <glyph glyph-name="J" unicode="J" horiz-adv-x="871" 
d="M744 528q0 -122 -30.5 -222t-92 -171.5t-154.5 -111t-219 -39.5q-57 0 -112.5 6t-115.5 20l18 197q3 26 21 42t51 16q17 0 42 -5.5t60 -5.5q49 0 85.5 13.5t60.5 45t36 82.5t12 126v936h338v-929z" />
    <glyph glyph-name="K" unicode="K" horiz-adv-x="1413" 
d="M479 867h54q75 0 108 47l328 476q29 38 62.5 52.5t83.5 14.5h294l-432 -589q-46 -61 -99 -88q38 -14 69 -39t58 -65l440 -676h-302q-29 0 -49.5 4t-35.5 12t-26 19.5t-21 26.5l-330 507q-18 28 -45.5 39.5t-74.5 11.5h-82v-620h-338v1457h338v-590z" />
    <glyph glyph-name="L" unicode="L" horiz-adv-x="1050" 
d="M479 270h540v-270h-878v1457h338v-1187z" />
    <glyph glyph-name="M" unicode="M" horiz-adv-x="1920" 
d="M886 666q20 -38 38.5 -79t35.5 -84q17 44 35.5 86t39.5 80l374 736q10 19 20.5 29.5t23.5 15.5t29.5 6t38.5 1h258v-1457h-298v838q0 61 6 132l-386 -749q-18 -35 -48.5 -53t-69.5 -18h-46q-39 0 -69.5 18t-48.5 53l-388 750q4 -35 6 -69.5t2 -63.5v-838h-298v1457h258
q22 0 38.5 -1t29.5 -6t23.5 -15.5t20.5 -29.5l375 -739v0z" />
    <glyph glyph-name="N" unicode="N" horiz-adv-x="1554" 
d="M319 1457q22 0 37 -2t27 -7.5t23 -15.5t25 -27l692 -875q-4 42 -6 81.5t-2 74.5v771h298v-1457h-176q-39 0 -65.5 12.5t-52.5 43.5l-687 868q3 -38 5 -74.5t2 -68.5v-781h-298v1457h178v0z" />
    <glyph glyph-name="O" unicode="O" horiz-adv-x="1629" 
d="M1571 729q0 -158 -54.5 -294t-153.5 -236.5t-238.5 -157.5t-309.5 -57t-310 57t-239.5 157.5t-154 236.5t-54.5 294t54.5 294t154 236t239.5 157t310 57t309.5 -57.5t238.5 -157.5t153.5 -236t54.5 -293zM1225 729q0 108 -28 194.5t-80.5 146.5t-128.5 92t-173 32
q-98 0 -174.5 -32t-129 -92t-80.5 -146.5t-28 -194.5q0 -109 28 -195.5t80.5 -146.5t129 -91.5t174.5 -31.5q97 0 173 31.5t128.5 91.5t80.5 146.5t28 195.5z" />
    <glyph glyph-name="Oslash" unicode="&#xd8;" horiz-adv-x="1629" 
d="M1571 729q0 -158 -54.5 -294t-153.5 -236.5t-238.5 -157.5t-309.5 -57q-94 0 -178 17.5t-159 50.5l-57 -79q-36 -47 -86 -66.5t-98 -19.5h-132l199 276q-118 102 -182.5 247t-64.5 319q0 158 54.5 294t154 236t239.5 157t310 57q105 0 197.5 -22t173.5 -64l41 57
q16 22 29.5 37t28.5 24.5t34 13.5t46 4h172l-184 -255q105 -102 161.5 -240t56.5 -299zM403 729q0 -192 84 -311l527 731q-42 22 -92 33.5t-107 11.5q-98 0 -174.5 -32t-129 -92t-80.5 -146.5t-28 -194.5zM1225 729q0 81 -16 150t-46 124l-512 -711q71 -28 164 -28
q97 0 173 31.5t128.5 91.5t80.5 146.5t28 195.5z" />
    <glyph glyph-name="OE" unicode="&#x152;" horiz-adv-x="2147" 
d="M2080 1457v-260h-598v-340h458v-250h-458v-347h598v-260h-898v148q-86 -78 -196.5 -121t-243.5 -43q-154 0 -279.5 57t-215 157.5t-138.5 236.5t-49 294t49 294t138.5 236t215 157t279.5 57q133 0 243.5 -43.5t196.5 -121.5v149h898zM1142 729q0 108 -24.5 196
t-71.5 149.5t-115 95t-155 33.5q-89 0 -157.5 -33.5t-116 -95t-72 -149.5t-24.5 -196q0 -109 24.5 -197t72 -149.5t116 -95t157.5 -33.5q87 0 155 33.5t115 95t71.5 149.5t24.5 197z" />
    <glyph glyph-name="P" unicode="P" horiz-adv-x="1272" 
d="M479 487v-487h-338v1457h514q154 0 264.5 -36.5t182 -100.5t105.5 -151t34 -188q0 -109 -35 -200t-107 -156t-182.5 -101.5t-261.5 -36.5h-176zM479 742h176q132 0 190 63t58 176q0 50 -15 91t-45.5 70.5t-77 45.5t-110.5 16h-176v-462z" />
    <glyph glyph-name="Q" unicode="Q" horiz-adv-x="1630" 
d="M1572 729q0 -94 -19.5 -180.5t-56 -162.5t-90 -141t-121.5 -115l369 -403h-278q-60 0 -107.5 15.5t-88.5 57.5l-181 203q-44 -9 -89.5 -14t-93.5 -5q-170 0 -310 57t-239.5 157.5t-154 236.5t-54.5 294t54.5 294t154 236t239.5 157t310 57t309.5 -57.5t238.5 -157.5
t153.5 -236t54.5 -293zM1226 729q0 108 -28 194.5t-80.5 146.5t-128.5 92t-173 32q-98 0 -174.5 -32t-129 -92t-80.5 -146.5t-28 -194.5q0 -109 28 -195.5t80.5 -146.5t129 -91.5t174.5 -31.5q97 0 173 31.5t128.5 91.5t80.5 146.5t28 195.5z" />
    <glyph glyph-name="R" unicode="R" horiz-adv-x="1315" 
d="M479 539v-539h-338v1457h474q158 0 269.5 -32.5t182 -90.5t102.5 -137t32 -172q0 -71 -19 -134t-56.5 -116.5t-92 -95.5t-125.5 -69q34 -17 63 -42.5t52 -60.5l310 -507h-306q-85 0 -122 64l-242 423q-17 27 -38 39.5t-60 12.5h-86zM479 772h136q69 0 117.5 17.5
t79.5 48.5t45 72.5t14 89.5q0 96 -62.5 150t-193.5 54h-136v-432z" />
    <glyph glyph-name="S" unicode="S" horiz-adv-x="1108" 
d="M946 1161q-15 -24 -31.5 -36t-42.5 -12q-23 0 -49.5 14.5t-60 32.5t-76.5 32.5t-98 14.5q-95 0 -141.5 -40.5t-46.5 -109.5q0 -44 28 -73t73.5 -50t104 -38.5t119.5 -39t119.5 -50.5t104 -74t73.5 -109.5t28 -155.5q0 -101 -35 -189t-101.5 -153.5t-164 -103
t-221.5 -37.5q-68 0 -138.5 14t-136.5 39.5t-124 60.5t-101 78l100 158q12 17 31.5 28.5t42.5 11.5q30 0 60.5 -19t69 -42t88.5 -42t118 -19q92 0 143 40.5t51 128.5q0 51 -28 83t-73.5 53t-103.5 37t-119 35.5t-119 48t-103.5 75t-73.5 116t-28 171.5q0 82 33 160t97 139
t157 97.5t213 36.5q67 0 130.5 -10.5t120.5 -31t106.5 -49t88.5 -64.5z" />
    <glyph glyph-name="T" unicode="T" horiz-adv-x="1218" 
d="M1188 1457v-268h-410v-1189h-338v1189h-410v268h1158z" />
    <glyph glyph-name="U" unicode="U" horiz-adv-x="1498" 
d="M749 267q68 0 121.5 22.5t90.5 64.5t56.5 102.5t19.5 137.5v863h338v-863q0 -134 -43.5 -246t-124.5 -193t-197 -126t-261 -45q-146 0 -262 45t-197 126t-124 193t-43 246v863h338v-862q0 -77 19.5 -137.5t56.5 -103t90.5 -65t121.5 -22.5z" />
    <glyph glyph-name="V" unicode="V" horiz-adv-x="1422" 
d="M-26 1457h272q44 0 71 -20.5t41 -52.5l282 -780q20 -51 39 -111t36 -126q14 66 31.5 126t37.5 111l280 780q11 28 39.5 50.5t70.5 22.5h274l-584 -1457h-306z" />
    <glyph glyph-name="W" unicode="W" horiz-adv-x="2130" 
d="M4 1457h284q44 0 73.5 -20t38.5 -53l200 -760q9 -37 18 -79t18 -88q18 94 44 167l236 760q9 28 38.5 50.5t71.5 22.5h100q44 0 71 -20.5t41 -52.5l234 -760q26 -70 44 -159q8 44 16.5 84t17.5 75l200 760q8 29 38 51t72 22h266l-450 -1457h-306l-274 903q-15 43 -29 99
q-14 -56 -29 -99l-278 -903h-306z" />
    <glyph glyph-name="X" unicode="X" horiz-adv-x="1380" 
d="M456 749l-451 708h338q33 0 48.5 -8.5t27.5 -28.5l290 -491q5 13 11.5 25t14.5 25l254 436q14 22 29.5 32t38.5 10h324l-457 -693l467 -764h-338q-33 0 -53.5 16t-32.5 38l-292 510q-8 -22 -18 -38l-272 -472q-14 -20 -33 -37t-49 -17h-316z" />
    <glyph glyph-name="Y" unicode="Y" horiz-adv-x="1340" 
d="M839 554v-554h-338v554l-528 903h298q44 0 69.5 -20.5t42.5 -52.5l206 -424q26 -50 46.5 -93.5t36.5 -85.5q15 43 35 86.5t46 92.5l204 424q7 13 17 26t23.5 23.5t31 17t38.5 6.5h300z" />
    <glyph glyph-name="Z" unicode="Z" horiz-adv-x="1218" 
d="M1174 1457v-122q0 -26 -8.5 -51t-23.5 -47l-684 -977h694v-260h-1124v130q0 23 8 45.5t22 41.5l686 980h-660v260h1090z" />
    <glyph glyph-name="a" unicode="a" horiz-adv-x="1035" 
d="M800 0q-44 0 -66.5 12t-37.5 50l-22 57q-39 -33 -75 -58t-74.5 -42.5t-82 -26t-96.5 -8.5q-71 0 -129 18.5t-98.5 54.5t-62.5 89.5t-22 123.5q0 55 28 113t97 105.5t186 79.5t295 36v44q0 91 -37.5 131.5t-106.5 40.5q-55 0 -90 -12t-62.5 -27t-53.5 -27t-62 -12
q-32 0 -54 16t-36 38l-56 97q94 83 208.5 123.5t245.5 40.5q94 0 169.5 -30.5t128 -85t80.5 -129.5t28 -164v-648h-142zM444 189q60 0 105 21t91 68v144q-93 -4 -153 -16t-95 -30t-48.5 -41t-13.5 -50q0 -53 29 -74.5t85 -21.5z" />
    <glyph glyph-name="ae" unicode="&#xe6;" horiz-adv-x="1628" 
d="M1146 1053q92 0 171 -35t136.5 -99.5t90 -156t32.5 -204.5q0 -35 -3 -57t-10.5 -35t-20.5 -18t-34 -5h-570q17 -119 77.5 -173t152.5 -54q67 0 106.5 12t65 26t44 26t44.5 12q43 0 62 -27l84 -103q-48 -55 -102.5 -89.5t-111.5 -54t-113.5 -27t-108.5 -7.5
q-51 0 -101 10.5t-96 33t-86.5 57.5t-73.5 83q-32 -48 -76.5 -83t-97.5 -57.5t-113 -33t-124 -10.5q-160 0 -247 78t-87 219q0 37 12 76t39.5 76.5t73 71t113 59.5t158.5 42t210 19v23q0 91 -37.5 136t-106.5 45q-55 0 -90 -13.5t-62.5 -30t-53.5 -30t-62 -13.5
q-32 0 -54 16t-36 38l-56 97q94 83 196 123.5t224 40.5q113 0 188 -39t117 -108q59 66 143 104.5t194 38.5zM1132 839q-88 0 -135.5 -55.5t-60.5 -160.5h364q0 37 -8.5 75.5t-28 69.5t-52 51t-79.5 20zM642 443q-93 -5 -153 -18.5t-95 -33.5t-48.5 -44.5t-13.5 -50.5
q0 -54 29 -80.5t85 -26.5q42 0 78 12.5t62 40.5t41 73.5t15 111.5v16z" />
    <glyph glyph-name="b" unicode="b" horiz-adv-x="1149" 
d="M105 0v1497h310v-571q60 58 131 92.5t160 34.5q88 0 160 -36t123 -102.5t78.5 -160.5t27.5 -210q0 -126 -32 -229t-90.5 -176.5t-139.5 -114t-179 -40.5q-47 0 -84 9t-68 25.5t-56.5 39.5t-49.5 50l-11 -52q-8 -32 -26 -44t-48 -12h-206zM597 820q-57 0 -99 -25t-83 -73
v-440q35 -39 76 -54.5t83 -15.5q44 0 81 16.5t63.5 54t41.5 99t15 151.5q0 78 -11.5 132.5t-34 89t-56 50t-76.5 15.5z" />
    <glyph glyph-name="c" unicode="c" horiz-adv-x="973" 
d="M867 791q-14 -17 -27 -27t-37 -10q-23 0 -41.5 11t-41.5 24.5t-54 24.5t-77 11q-57 0 -98.5 -21t-68.5 -60t-40 -95.5t-13 -127.5q0 -149 57.5 -229t158.5 -80q54 0 85.5 13.5t53.5 30t40.5 30.5t46.5 14q37 0 56 -27l90 -111q-48 -55 -101 -89.5t-108.5 -54t-111.5 -27
t-109 -7.5q-95 0 -181.5 36t-152 104.5t-104 168.5t-38.5 228q0 112 33.5 209.5t99 169t162 112.5t223.5 41q122 0 214 -39t166 -114z" />
    <glyph glyph-name="ccedilla" unicode="&#xe7;" horiz-adv-x="975" 
d="M416 -220q15 0 29 -3.5t35 -3.5q26 0 37 9t11 20q0 22 -30.5 32t-103.5 21l47 137q-81 15 -152 57t-124 109t-83.5 158.5t-30.5 204.5q0 112 33.5 209.5t99 169t162 112.5t223.5 41q122 0 214 -39t166 -114l-82 -109q-14 -17 -27 -27t-37 -10q-23 0 -41.5 11t-41.5 24.5
t-54 24.5t-77 11q-57 0 -98.5 -21t-68.5 -60t-40 -95.5t-13 -127.5q0 -149 57.5 -229t158.5 -80q54 0 85.5 13.5t53.5 30t40.5 30.5t46.5 14q37 0 56 -27l90 -111q-38 -44 -79.5 -74.5t-85 -50.5t-88 -31.5t-88.5 -16.5l-11 -38q48 -12 79.5 -28.5t50.5 -36t27 -42.5t8 -48
q0 -35 -19.5 -63t-54.5 -48t-84.5 -30.5t-109.5 -10.5q-41 0 -75.5 4t-72.5 12l28 93q6 27 34 27z" />
    <glyph glyph-name="d" unicode="d" horiz-adv-x="1149" 
d="M852 0q-58 0 -76 52l-24 79q-31 -33 -65 -60t-73.5 -46.5t-85 -30t-98.5 -10.5q-81 0 -150 36t-119 104t-78.5 166.5t-28.5 224.5q0 116 32 215.5t90.5 172t140.5 113.5t181 41q80 0 135.5 -23.5t100.5 -61.5v525h310v-1497h-192zM538 222q34 0 61.5 6.5t50.5 18.5
t43.5 30t40.5 42v440q-36 39 -76.5 54.5t-85.5 15.5q-43 0 -79 -17t-62.5 -54.5t-41.5 -97.5t-15 -145q0 -82 12 -138t33.5 -90.5t51.5 -49.5t67 -15z" />
    <glyph glyph-name="e" unicode="e" horiz-adv-x="1078" 
d="M562 1053q103 0 188.5 -32t147 -93t96 -149.5t34.5 -200.5q0 -35 -3 -57t-11 -35t-21.5 -18t-34.5 -5h-598q15 -130 79 -188.5t165 -58.5q54 0 93 13t69.5 29t56 29t53.5 13q37 0 56 -27l90 -111q-48 -55 -103.5 -89.5t-114 -54t-117 -27t-111.5 -7.5q-109 0 -204.5 35.5
t-167 105.5t-113 174t-41.5 242q0 104 35.5 197t102 163t161 111t213.5 41zM568 839q-89 0 -139 -50.5t-66 -145.5h387q0 37 -9.5 72t-31 62.5t-56.5 44.5t-85 17z" />
    <glyph glyph-name="f" unicode="f" horiz-adv-x="732" 
d="M182 0v824l-68 14q-35 8 -56.5 25t-21.5 50v122h146v59q0 89 28.5 161t82 123t130.5 79t175 28q38 0 70 -4.5t67 -14.5l-6 -151q-1 -16 -8 -26.5t-18.5 -17t-24.5 -9.5t-26 -3q-41 0 -73 -8t-53.5 -28.5t-32.5 -54t-11 -84.5v-49h243v-212h-233v-823h-310z" />
    <glyph glyph-name="g" unicode="g" horiz-adv-x="1071" 
d="M500 1055q66 0 124.5 -13t108.5 -37h313v-113q0 -26 -14.5 -41t-49.5 -23l-76 -17q14 -45 14 -93q0 -78 -32.5 -140t-89 -105.5t-133.5 -67t-165 -23.5q-49 0 -92 6q-34 -20 -34 -46t28 -37.5t74 -16t104.5 -6t119.5 -7t119.5 -18.5t104.5 -42t74 -77.5t28 -123.5
q0 -70 -34 -137t-100 -119t-162 -83.5t-220 -31.5q-122 0 -210.5 23t-147 60.5t-86.5 86.5t-28 102q0 69 40 115t112 74q-38 23 -60 59t-22 93q0 23 8 48.5t25 49.5t43 46t62 39q-81 43 -127.5 114t-46.5 165q0 78 33 140.5t90.5 106t135.5 67t169 23.5zM740 -38
q0 37 -33 53.5t-86 23t-119 8t-131 8.5q-29 -20 -47 -44.5t-18 -55.5q0 -22 9.5 -40t33.5 -31t64.5 -20.5t102.5 -7.5q67 0 110 8t68.5 22t35.5 33.5t10 42.5zM500 573q77 0 111.5 38.5t34.5 99.5q0 63 -34.5 99t-111.5 36t-111.5 -36t-34.5 -99q0 -30 8.5 -55t26.5 -43.5
t45.5 -29t65.5 -10.5z" />
    <glyph glyph-name="h" unicode="h" horiz-adv-x="1140" 
d="M105 0v1497h310v-551q56 48 121.5 77.5t156.5 29.5q85 0 150.5 -29.5t110.5 -82t68 -125t23 -157.5v-659h-310v659q0 76 -35 118.5t-103 42.5q-51 0 -96 -22t-86 -59v-739h-310z" />
    <glyph glyph-name="i" unicode="i" horiz-adv-x="534" 
d="M422 1037v-1037h-310v1037h310zM454 1321q0 -37 -15 -69.5t-41 -57t-60.5 -39t-73.5 -14.5q-38 0 -71 14.5t-58.5 39t-40 57t-14.5 69.5q0 38 14.5 71t40 58t58.5 39t71 14q39 0 73.5 -14t60.5 -39t41 -58t15 -71z" />
    <glyph glyph-name="dotlessi" unicode="&#x131;" horiz-adv-x="536" 
d="M423 1037v-1037h-310v1037h310z" />
    <glyph glyph-name="j" unicode="j" horiz-adv-x="534" 
d="M422 1037v-1039q0 -73 -18.5 -137.5t-61 -113t-112 -76.5t-172.5 -28q-38 0 -70.5 4.5t-67.5 13.5l10 163q2 21 14 31t48 10t59 6t36.5 21t19 40.5t5.5 65.5v1039h310zM454 1321q0 -37 -15 -69.5t-41 -57t-60.5 -39t-73.5 -14.5q-38 0 -71 14.5t-58.5 39t-40 57
t-14.5 69.5q0 38 14.5 71t40 58t58.5 39t71 14q39 0 73.5 -14t60.5 -39t41 -58t15 -71z" />
    <glyph glyph-name="k" unicode="k" horiz-adv-x="1117" 
d="M415 1497v-839h46q29 0 44 8.5t30 28.5l196 292q18 25 41 37.5t59 12.5h284l-268 -369q-38 -50 -90 -82q23 -17 42 -39.5t36 -50.5l292 -496h-280q-35 0 -60 11.5t-42 40.5l-196 367q-14 25 -29 32.5t-45 7.5h-60v-459h-310v1497h310z" />
    <glyph glyph-name="m" unicode="m" horiz-adv-x="1702" 
d="M105 0v1037h192q58 0 76 -52l17 -56q26 27 54 49.5t60.5 39t70 26t82.5 9.5q94 0 155.5 -48.5t93.5 -129.5q26 48 63.5 82t81 55t92 31t96.5 10q89 0 158 -26.5t115.5 -77t70.5 -124t24 -166.5v-659h-310v659q0 161 -138 161q-63 0 -104.5 -41.5t-41.5 -119.5v-659h-310
v659q0 89 -35 125t-103 36q-42 0 -79.5 -19t-70.5 -51v-750h-310z" />
    <glyph glyph-name="n" unicode="n" horiz-adv-x="1140" 
d="M105 0v1037h192q58 0 76 -52l18 -60q30 28 62 52t68.5 40.5t79 26t92.5 9.5q85 0 150.5 -29.5t110.5 -82t68 -125t23 -157.5v-659h-310v659q0 76 -35 118.5t-103 42.5q-51 0 -96 -22t-86 -59v-739h-310z" />
    <glyph glyph-name="o" unicode="o" horiz-adv-x="1162" 
d="M583 1053q118 0 215 -37t166.5 -106t108 -167.5t38.5 -221.5q0 -124 -38.5 -223.5t-108 -169t-166.5 -107t-215 -37.5q-119 0 -216.5 37.5t-168 107t-109 169t-38.5 223.5q0 123 38.5 221.5t109 167.5t168 106t216.5 37zM583 214q107 0 157.5 75.5t50.5 229.5t-50.5 229
t-157.5 75q-110 0 -161 -75t-51 -229t51 -229.5t161 -75.5z" />
    <glyph glyph-name="oslash" unicode="&#xf8;" horiz-adv-x="1162" 
d="M975 899q65 -69 100.5 -164.5t35.5 -213.5q0 -124 -38.5 -223.5t-108 -169t-166.5 -107t-215 -37.5q-135 0 -245 49l-17 -24q-17 -25 -38.5 -41.5t-46 -26.5t-50 -14.5t-49.5 -4.5h-112l161 219q-65 69 -100 165t-35 215q0 123 38.5 221.5t109 167.5t168 106t216.5 37
q132 0 238 -47l46 62q15 22 28.5 37t28.5 24t34.5 13t46.5 4h152zM583 205q107 0 167.5 80t60.5 234q0 78 -14 137l-318 -431q43 -20 104 -20zM351 519q0 -80 13 -135l316 430q-41 19 -97 19q-110 0 -171 -80t-61 -234z" />
    <glyph glyph-name="oe" unicode="&#x153;" horiz-adv-x="1757" 
d="M1275 1053q92 0 171 -35t136.5 -99.5t90 -156t32.5 -204.5q0 -35 -3 -57t-10.5 -35t-20.5 -18t-34 -5h-570q17 -119 77.5 -173t152.5 -54q51 0 87.5 13t65 29t53.5 29t54 13q35 0 54 -27l92 -111q-48 -55 -102.5 -89.5t-111.5 -54t-113.5 -27t-108.5 -7.5
q-51 0 -100 10.5t-94.5 32.5t-86 55.5t-72.5 79.5q-63 -86 -159 -132t-220 -46q-103 0 -191.5 37.5t-153.5 107t-102 169t-37 223.5q0 123 37.5 221.5t103.5 167.5t157 106t198 37q118 0 210.5 -45t155.5 -130q58 81 148.5 128t213.5 47zM565 214q100 0 146 75.5t46 229.5
t-46 229t-146 75q-101 0 -147.5 -75t-46.5 -229t46.5 -229.5t147.5 -75.5zM1261 839q-88 0 -135.5 -55.5t-60.5 -160.5h364q0 37 -8.5 75.5t-28 69.5t-52 51t-79.5 20z" />
    <glyph glyph-name="p" unicode="p" horiz-adv-x="1150" 
d="M105 -329v1366h192q58 0 76 -52l23 -76q30 33 64.5 60t74 46.5t85 30.5t99.5 11q81 0 150 -36t119 -104t78.5 -166.5t28.5 -223.5q0 -117 -32.5 -216t-91 -172t-140 -114t-180.5 -41q-81 0 -136 23t-100 62v-398h-310zM611 820q-34 0 -61.5 -6.5t-51 -18.5t-43.5 -30.5
t-40 -42.5v-440q35 -39 76 -54.5t86 -15.5q43 0 79 17t62.5 54.5t41.5 97.5t15 146q0 82 -12 138t-33.5 90.5t-51.5 49.5t-67 15z" />
    <glyph glyph-name="q" unicode="q" horiz-adv-x="1149" 
d="M1044 1037v-1366h-310v442q-59 -58 -132 -93.5t-172 -35.5q-81 0 -150 36t-119 104t-78.5 166.5t-28.5 224.5q0 116 32 215.5t90.5 172t140.5 113.5t181 41q47 0 85 -8t69.5 -23t58.5 -36t52 -46l13 41q18 52 76 52h192zM538 222q34 0 61.5 6.5t50.5 18.5t43.5 30
t40.5 42v440q-36 38 -76.5 54t-85.5 16q-43 0 -79 -17t-62.5 -54.5t-41.5 -97.5t-15 -145q0 -82 12 -138t33.5 -90.5t51.5 -49.5t67 -15z" />
    <glyph glyph-name="r" unicode="r" horiz-adv-x="763" 
d="M105 0v1037h184q23 0 38.5 -4t26 -12.5t16 -22.5t9.5 -34l15 -88q49 84 111.5 132.5t143.5 48.5q70 0 114 -33l-20 -228q-5 -22 -16.5 -30t-31.5 -8q-8 0 -21 1t-27 2.5t-28.5 3t-26.5 1.5q-68 0 -108.5 -36.5t-68.5 -100.5v-629h-310z" />
    <glyph glyph-name="s" unicode="s" horiz-adv-x="891" 
d="M764 810q-12 -19 -25.5 -27t-34.5 -8q-22 0 -44 9.5t-47.5 20.5t-57.5 20.5t-73 9.5q-59 0 -90.5 -22.5t-31.5 -62.5q0 -29 20.5 -48t54.5 -33.5t77 -27.5t88 -29t88 -37.5t77 -53t54.5 -76.5t20.5 -108q0 -77 -28 -142t-83.5 -112t-137 -73t-187.5 -26q-53 0 -106 10
t-102.5 27t-91.5 40.5t-72 50.5l72 114q12 20 30.5 31.5t47.5 11.5q27 0 48.5 -12t46.5 -26t58.5 -26t84.5 -12q36 0 61 7.5t40 20.5t22 29t7 33q0 31 -21 51t-55 34.5t-77.5 27t-88.5 28.5t-88.5 38.5t-77.5 57t-55 84.5t-21 121q0 66 25.5 125.5t76.5 104.5t128 71.5
t180 26.5q56 0 108.5 -10t98.5 -28t84 -42.5t67 -53.5z" />
    <glyph glyph-name="germandbls" unicode="&#xdf;" horiz-adv-x="1246" 
d="M662 1485q130 0 220 -37t145.5 -92t80 -117t24.5 -113q0 -56 -18 -96t-45 -69t-58 -50.5t-58 -40.5t-45 -38.5t-18 -45.5q0 -28 23.5 -50.5t58 -46.5t75.5 -52t75.5 -67.5t58 -94t23.5 -130.5q0 -91 -34.5 -158.5t-91.5 -112.5t-132 -67.5t-156 -22.5q-44 0 -90 10
t-89.5 27t-82 40.5t-68.5 50.5l72 114q12 20 30.5 31.5t47.5 11.5q27 0 49 -12t44.5 -26t49.5 -26t65 -12q39 0 67.5 28.5t28.5 75.5q0 40 -26 68t-65 52t-84 48.5t-84 59t-65 82t-26 118.5q0 60 19.5 103t49.5 74.5t64 56.5t64 49t49.5 51.5t19.5 64.5q0 67 -43.5 105.5
t-138.5 38.5q-63 0 -107.5 -20.5t-72.5 -59t-41 -94.5t-13 -126v-968h-310v978q0 107 37.5 199.5t109.5 161t175.5 107.5t235.5 39z" />
    <glyph glyph-name="t" unicode="t" horiz-adv-x="768" 
d="M476 -16q-74 0 -130.5 21.5t-95 61t-58.5 95.5t-20 125v536h-88q-24 0 -41 15.5t-17 45.5v121l165 32l61 253q12 48 68 48h162v-303h257v-212h-257v-515q0 -36 17.5 -59.5t50.5 -23.5q17 0 28.5 3.5t20 8t16 8t17.5 3.5q14 0 22.5 -6.5t17.5 -20.5l94 -147
q-60 -45 -135 -67.5t-155 -22.5z" />
    <glyph glyph-name="u" unicode="u" horiz-adv-x="1140" 
d="M405 1037v-658q0 -77 35 -119t103 -42q51 0 95.5 21t86.5 59v739h310v-1037h-192q-58 0 -76 52l-19 60q-30 -29 -62 -52.5t-68.5 -40t-78.5 -26t-92 -9.5q-85 0 -150.5 29.5t-110.5 82.5t-68 125t-23 158v658h310z" />
    <glyph glyph-name="v" unicode="v" horiz-adv-x="1078" 
d="M680 0h-282l-402 1037h258q33 0 55.5 -15.5t30.5 -38.5l144 -465q19 -57 33.5 -111t25.5 -108q11 54 26 108t35 111l150 465q8 23 30 38.5t52 15.5h246z" />
    <glyph glyph-name="w" unicode="w" horiz-adv-x="1636" 
d="M5 1037h248q33 0 55.5 -15.5t30.5 -38.5l104 -465q13 -53 22.5 -103t17.5 -99q14 49 28.5 99t31.5 103l130 466q8 23 30 38.5t52 15.5h138q33 0 55.5 -15.5t30.5 -38.5l124 -466q15 -53 29 -103t27 -101q8 50 19 100t25 104l110 465q8 23 30 38.5t52 15.5h236l-322 -1037
h-252q-20 0 -34 12t-22 40l-148 517q-11 35 -19.5 69t-15.5 68q-7 -35 -15.5 -69.5t-19.5 -69.5l-150 -515q-15 -52 -66 -52h-240z" />
    <glyph glyph-name="x" unicode="x" horiz-adv-x="1088" 
d="M339 536l-334 501h298q33 0 48.5 -8.5t27.5 -28.5l185 -307q12 37 35 71l132 231q14 22 29.5 32t38.5 10h284l-334 -487l348 -550h-298q-33 0 -53.5 16t-32.5 38l-185 318q-11 -35 -27 -60l-152 -258q-14 -20 -33 -37t-49 -17h-276z" />
    <glyph glyph-name="y" unicode="y" horiz-adv-x="1076" 
d="M536 -269q-14 -31 -34 -45.5t-64 -14.5h-232l200 420l-414 946h274q36 0 55.5 -16t28.5 -38l170 -447q24 -62 39 -124q10 32 21.5 63.5t23.5 62.5l154 445q9 23 32 38.5t50 15.5h250z" />
    <glyph glyph-name="z" unicode="z" horiz-adv-x="932" 
d="M876 913q0 -32 -11 -62t-29 -49l-433 -572h463v-230h-820v126q0 19 10 48t30 54l437 579h-449v230h802v-124z" />
    <glyph glyph-name="ordfeminine" unicode="&#xaa;" horiz-adv-x="734" 
d="M535 842q-30 0 -45.5 8t-28.5 34l-12 27q-23 -20 -44 -34t-43.5 -24t-48 -14.5t-56.5 -4.5q-91 0 -142.5 46t-51.5 130q0 32 15.5 66.5t55.5 64t110 49.5t179 23v16h216v-387h-104zM423 1229q0 46 -19.5 62.5t-52.5 16.5q-30 0 -49 -6t-34.5 -13t-31.5 -13t-41 -6
q-23 0 -38 13t-26 27l-38 69q59 53 131 76.5t155 23.5q59 0 107 -19t82 -53t52.5 -79.5t18.5 -98.5h-216zM329 980q27 0 48.5 8.5t45.5 31.5v63q-47 -2 -76 -7.5t-45 -14t-21.5 -19.5t-5.5 -22q0 -23 12 -31.5t42 -8.5z" />
    <glyph glyph-name="ordmasculine" unicode="&#xba;" horiz-adv-x="798" 
d="M401 1477q75 0 138 -22t108 -63.5t70.5 -101t25.5 -134.5q0 -76 -25.5 -136.5t-70.5 -102.5t-108 -64.5t-138 -22.5q-76 0 -139.5 22.5t-109.5 64.5t-71.5 102.5t-25.5 136.5q0 75 25.5 134.5t71.5 101t109.5 63.5t139.5 22zM401 1004q51 0 75.5 34.5t24.5 115.5
t-24.5 115t-75.5 34q-56 0 -80 -34t-24 -115t24 -115.5t80 -34.5z" />
    <glyph glyph-name="grave" unicode="`" 
d="M322 1473q47 0 70 -15.5t40 -44.5l136 -245h-176q-35 0 -56 9.5t-44 32.5l-260 263h290z" />
    <glyph glyph-name="acute" unicode="&#xb4;" 
d="M796 1473l-260 -263q-23 -23 -44 -32.5t-56 -9.5h-186l136 245q17 29 40 44.5t70 15.5h300z" />
    <glyph glyph-name="circumflex" unicode="&#x2c6;" 
d="M780 1168h-206q-18 0 -35 5.5t-34 22.5l-75 83l-12.5 12.5t-12.5 14.5q-6 -8 -12.5 -15t-12.5 -12l-77 -83q-15 -14 -33 -21t-36 -7h-214l234 289h292z" />
    <glyph glyph-name="caron" unicode="&#x2c7;" 
d="M20 1457h214q18 0 34.5 -5.5t25.5 -13.5l84 -91l26 -30q11 15 26 30l84 91q9 6 25.5 12.5t34.5 6.5h206l-234 -289h-292z" />
    <glyph glyph-name="tilde" unicode="&#x2dc;" 
d="M504 1387q24 0 39 12.5t15 53.5h188q0 -63 -17.5 -113.5t-48.5 -86t-73 -54.5t-91 -19q-37 0 -69 11.5t-59.5 25.5t-50 25.5t-39.5 11.5q-24 0 -38 -13.5t-14 -54.5h-190q0 63 18 113.5t49 86.5t73 55.5t90 19.5q37 0 69.5 -11.5t59.5 -25.5t49.5 -25.5t39.5 -11.5z" />
    <glyph glyph-name="dieresis" unicode="&#xa8;" 
d="M348 1295q0 -32 -13 -60t-35.5 -48.5t-52 -32.5t-63.5 -12q-32 0 -60.5 12t-50 32.5t-34.5 48.5t-13 60q0 33 13 62t34.5 50.5t50 34t60.5 12.5q34 0 63.5 -12.5t52 -34t35.5 -50.5t13 -62zM774 1295q0 -32 -12.5 -60t-34.5 -48.5t-51.5 -32.5t-63.5 -12q-33 0 -62 12
t-51 32.5t-34.5 48.5t-12.5 60q0 33 12.5 62t34.5 50.5t51 34t62 12.5q34 0 63.5 -12.5t51.5 -34t34.5 -50.5t12.5 -62z" />
    <glyph glyph-name="macron" unicode="&#xaf;" 
d="M90 1391h620v-190h-620v190z" />
    <glyph glyph-name="macron" unicode="&#x2c9;" 
d="M90 1391h620v-190h-620v190z" />
    <glyph glyph-name="breve" unicode="&#x2d8;" 
d="M400 1159q-94 0 -157 24t-101 64.5t-54 94.5t-16 115h216q0 -27 4.5 -48t17 -34.5t34 -20.5t56.5 -7q34 0 56 7t34.5 20.5t17 34.5t4.5 48h216q0 -61 -16 -115t-54 -94.5t-101 -64.5t-157 -24z" />
    <glyph glyph-name="ring" unicode="&#x2da;" 
d="M156 1334q0 50 20 90.5t53 69.5t77 44.5t92 15.5q49 0 94 -15.5t79.5 -44.5t54.5 -69.5t20 -90.5q0 -49 -20 -88.5t-54.5 -67.5t-79.5 -43.5t-94 -15.5q-48 0 -92 15.5t-77 43.5t-53 67.5t-20 88.5zM322 1334q0 -35 19.5 -57.5t60.5 -22.5q36 0 57 22.5t21 57.5
q0 38 -21 60t-57 22q-41 0 -60.5 -22t-19.5 -60z" />
    <glyph glyph-name="hungarumlaut" unicode="&#x2dd;" 
d="M542 1473l-200 -263q-20 -25 -42.5 -33.5t-57.5 -8.5h-126l116 245q15 29 39 44.5t71 15.5h200zM922 1473l-260 -263q-23 -23 -44 -32.5t-56 -9.5h-146l176 245q10 14 19.5 25t22 19t29 12t39.5 4h220z" />
    <glyph glyph-name="dotaccent" unicode="&#x2d9;" 
d="M588 1322q0 -37 -15 -70t-41 -57.5t-60.5 -38.5t-73.5 -14q-38 0 -71 14t-58.5 38.5t-40 57.5t-14.5 70t14.5 70.5t40 58t58.5 39t71 14.5q39 0 73.5 -14.5t60.5 -39t41 -58t15 -70.5z" />
    <glyph glyph-name="cedilla" unicode="&#xb8;" 
d="M279 -220q15 0 29 -3.5t35 -3.5q26 0 37 9t11 20q0 22 -30.5 32t-103.5 21l65 189h172l-26 -93q48 -12 79.5 -28.5t50.5 -36t27 -42.5t8 -48q0 -35 -19.5 -63t-54.5 -48t-84.5 -30.5t-109.5 -10.5q-41 0 -75.5 4t-72.5 12l28 93q6 27 34 27z" />
    <glyph glyph-name="ogonek" unicode="&#x2db;" 
d="M540 -167q21 0 28 -19l46 -111q-35 -21 -87 -35.5t-111 -14.5q-107 0 -162.5 42t-55.5 107q0 55 39 109.5t125 100.5l160 -12q-39 -21 -66.5 -52.5t-27.5 -69.5q0 -24 13.5 -38.5t40.5 -14.5q15 0 24 1t15 2.5t10 3t9 1.5z" />
    <glyph glyph-name="pi" unicode="&#x3c0;" horiz-adv-x="1292" 
d="M1244 1036v-140q0 -37 -24.5 -64.5t-69.5 -27.5h-106q1 -136 4.5 -233t10 -163.5t16 -105.5t22.5 -60t28.5 -27t34.5 -6h52v-119q0 -24 -15 -42.5t-40 -31t-58.5 -19t-69.5 -6.5q-73 0 -126 24.5t-87.5 70.5t-51.5 110t-17 144q0 45 5 92t12 101.5t15 120.5t13 150h-264
q-4 -172 -15.5 -299t-30.5 -217.5t-46 -148.5t-62.5 -91t-80 -45.5t-97.5 -12.5q-19 0 -40.5 3.5t-40 10t-30.5 17.5t-12 26v200h21q34 0 62 29.5t49 96t34.5 172.5t19.5 259h-196v127q0 17 7.5 35.5t22.5 34t36 25.5t48 10h1067z" />
    <glyph glyph-name="exclam" unicode="!" horiz-adv-x="584" 
d="M438 1457v-572q0 -92 -11 -182.5t-29 -184.5h-210q-18 94 -29 184.5t-11 182.5v572h290zM114 157q0 36 13.5 67t37 54t55.5 36.5t70 13.5q37 0 69 -13.5t56 -36.5t37.5 -54t13.5 -67t-13.5 -67.5t-37.5 -54.5t-56 -36t-69 -13q-38 0 -70 13t-55.5 36t-37 54.5t-13.5 67.5
z" />
    <glyph glyph-name="question" unicode="?" horiz-adv-x="943" 
d="M61 1324q37 31 80.5 58t93.5 47.5t107.5 32t124.5 11.5q94 0 169.5 -25t128.5 -71.5t81.5 -112t28.5 -145.5q0 -76 -21 -131.5t-53 -96.5t-70.5 -71t-73 -55.5t-60 -50.5t-32.5 -56l-28 -140h-212l-22 161q-8 49 10 85.5t49.5 66t70.5 56t73 57t57.5 68t23.5 89.5
q0 60 -39.5 95.5t-108.5 35.5q-53 0 -88.5 -11t-61 -24.5t-44.5 -24.5t-38 -11q-43 0 -64 37zM245 157q0 36 13.5 67t37 54t55.5 36.5t70 13.5q37 0 69 -13.5t56 -36.5t37.5 -54t13.5 -67t-13.5 -67.5t-37.5 -54.5t-56 -36t-69 -13q-38 0 -70 13t-55.5 36t-37 54.5
t-13.5 67.5z" />
    <glyph glyph-name="comma" unicode="," horiz-adv-x="480" 
d="M67 176q0 32 12 59.5t34.5 48t53 32.5t68.5 12q45 0 78 -15.5t55 -42t32.5 -61t10.5 -72.5q0 -50 -16 -106.5t-47.5 -113.5t-78.5 -112t-108 -100l-54 48q-22 18 -22 44q0 10 7 21.5t17 20.5q12 12 28 29.5t31.5 38.5t29.5 45.5t21 52.5q-35 3 -63 17t-47.5 37
t-30.5 52.5t-11 64.5z" />
    <glyph glyph-name="semicolon" unicode=";" horiz-adv-x="558" 
d="M100 0zM108 176q0 32 12 59.5t34.5 48t53 32.5t68.5 12q45 0 78 -15.5t55 -42t32.5 -61t10.5 -72.5q0 -50 -16 -106.5t-47.5 -113.5t-78.5 -112t-108 -100l-54 48q-22 18 -22 44q0 10 7 21.5t17 20.5q12 12 28 29.5t31.5 38.5t29.5 45.5t21 52.5q-35 3 -63 17t-47.5 37
t-30.5 52.5t-11 64.5zM100 840q0 36 13.5 67t37 54t55.5 36.5t70 13.5q37 0 69 -13.5t56 -36.5t37.5 -54t13.5 -67t-13.5 -67.5t-37.5 -54.5t-56 -36t-69 -13q-38 0 -70 13t-55.5 36t-37 54.5t-13.5 67.5z" />
    <glyph glyph-name="colon" unicode=":" horiz-adv-x="530" 
d="M89 0zM89 157q0 36 13.5 67t37 54t55.5 36.5t70 13.5q37 0 69 -13.5t56 -36.5t37.5 -54t13.5 -67t-13.5 -67.5t-37.5 -54.5t-56 -36t-69 -13q-38 0 -70 13t-55.5 36t-37 54.5t-13.5 67.5zM89 840q0 36 13.5 67t37 54t55.5 36.5t70 13.5q37 0 69 -13.5t56 -36.5t37.5 -54
t13.5 -67t-13.5 -67.5t-37.5 -54.5t-56 -36t-69 -13q-38 0 -70 13t-55.5 36t-37 54.5t-13.5 67.5z" />
    <glyph glyph-name="period" unicode="." horiz-adv-x="478" 
d="M63 157q0 36 13.5 67t37 54t55.5 36.5t70 13.5q37 0 69 -13.5t56 -36.5t37.5 -54t13.5 -67t-13.5 -67.5t-37.5 -54.5t-56 -36t-69 -13q-38 0 -70 13t-55.5 36t-37 54.5t-13.5 67.5z" />
    <glyph glyph-name="ellipsis" unicode="&#x2026;" horiz-adv-x="1582" 
d="M63 0zM63 157q0 36 13.5 67t37 54t55.5 36.5t70 13.5q37 0 69 -13.5t56 -36.5t37.5 -54t13.5 -67t-13.5 -67.5t-37.5 -54.5t-56 -36t-69 -13q-38 0 -70 13t-55.5 36t-37 54.5t-13.5 67.5zM1167 157q0 36 13.5 67t37 54t55.5 36.5t70 13.5q37 0 69 -13.5t56 -36.5
t37.5 -54t13.5 -67t-13.5 -67.5t-37.5 -54.5t-56 -36t-69 -13q-38 0 -70 13t-55.5 36t-37 54.5t-13.5 67.5zM615 157q0 36 13.5 67t37 54t55.5 36.5t70 13.5q37 0 69 -13.5t56 -36.5t37.5 -54t13.5 -67t-13.5 -67.5t-37.5 -54.5t-56 -36t-69 -13q-38 0 -70 13t-55.5 36
t-37 54.5t-13.5 67.5z" />
    <glyph glyph-name="quoteleft" unicode="&#x2018;" horiz-adv-x="454" 
d="M146 913q-54 85 -73 176.5t-2.5 180t67 169.5t136.5 147l98 -58q13 -8 18 -18t4.5 -20.5t-5 -20t-11.5 -16.5q-17 -18 -36.5 -55.5t-28.5 -87.5t-0.5 -109.5t48.5 -122.5q22 -35 11.5 -60t-40.5 -36z" />
    <glyph glyph-name="quoteright" unicode="&#x2019;" horiz-adv-x="454" 
d="M314 1553q54 -86 73 -177t2.5 -179.5t-67.5 -169.5t-136 -147l-98 58q-13 7 -18 17.5t-4.5 21t5 20t11.5 16.5q11 12 24 33t24 49t17.5 61.5t4.5 71t-14 78t-39 82.5q-22 35 -11.5 60t40.5 36z" />
    <glyph glyph-name="quotedblleft" unicode="&#x201c;" horiz-adv-x="812" 
d="M54 913zM146 913q-54 85 -73 176.5t-2.5 180t67 169.5t136.5 147l98 -58q13 -8 18 -18t4.5 -20.5t-5 -20t-11.5 -16.5q-17 -18 -36.5 -55.5t-28.5 -87.5t-0.5 -109.5t48.5 -122.5q22 -35 11.5 -60t-40.5 -36zM504 913q-54 85 -73 176.5t-2.5 180t67 169.5t136.5 147
l98 -58q13 -8 18 -18t4.5 -20.5t-5 -20t-11.5 -16.5q-17 -18 -36.5 -55.5t-28.5 -87.5t-0.5 -109.5t48.5 -122.5q22 -35 11.5 -60t-40.5 -36z" />
    <glyph glyph-name="quotedblright" unicode="&#x201d;" horiz-adv-x="812" 
d="M65 880zM314 1553q54 -86 73 -177t2.5 -179.5t-67.5 -169.5t-136 -147l-98 58q-13 7 -18 17.5t-4.5 21t5 20t11.5 16.5q11 12 24 33t24 49t17.5 61.5t4.5 71t-14 78t-39 82.5q-22 35 -11.5 60t40.5 36zM672 1553q54 -86 73 -177t2.5 -179.5t-67.5 -169.5t-136 -147
l-98 58q-13 7 -18 17.5t-4.5 21t5 20t11.5 16.5q11 12 24 33t24 49t17.5 61.5t4.5 71t-14 78t-39 82.5q-22 35 -11.5 60t40.5 36z" />
    <glyph glyph-name="quotesinglbase" unicode="&#x201a;" horiz-adv-x="440" 
d="M288 334q54 -86 73 -177t2.5 -179.5t-67.5 -169.5t-136 -147l-98 58q-13 7 -18 17.5t-4.5 21t5 20t11.5 16.5q11 12 24 33t24 49t17.5 61.5t4.5 71t-14 78t-39 82.5q-22 35 -11.5 60t40.5 36z" />
    <glyph glyph-name="quotedblbase" unicode="&#x201e;" horiz-adv-x="798" 
d="M39 0zM288 334q54 -86 73 -177t2.5 -179.5t-67.5 -169.5t-136 -147l-98 58q-13 7 -18 17.5t-4.5 21t5 20t11.5 16.5q11 12 24 33t24 49t17.5 61.5t4.5 71t-14 78t-39 82.5q-22 35 -11.5 60t40.5 36zM646 334q54 -86 73 -177t2.5 -179.5t-67.5 -169.5t-136 -147l-98 58
q-13 7 -18 17.5t-4.5 21t5 20t11.5 16.5q11 12 24 33t24 49t17.5 61.5t4.5 71t-14 78t-39 82.5q-22 35 -11.5 60t40.5 36z" />
    <glyph glyph-name="guilsinglleft" unicode="&#x2039;" horiz-adv-x="599" 
d="M81 525v39l262 402l102 -46q39 -17 45.5 -48t-13.5 -66l-120 -215q-17 -30 -36 -47q18 -16 36 -46l120 -216q20 -35 13.5 -65.5t-45.5 -47.5l-102 -46z" />
    <glyph glyph-name="guilsinglright" unicode="&#x203a;" horiz-adv-x="599" 
d="M256 123l-102 46q-39 17 -45.5 47.5t13.5 65.5l120 216q15 28 36 46q-10 9 -19 21t-17 26l-120 215q-20 35 -13.5 66t45.5 48l102 46l262 -402v-39z" />
    <glyph glyph-name="guillemotleft" unicode="&#xab;" horiz-adv-x="959" 
d="M81 123zM81 525v39l262 402l102 -46q39 -17 45.5 -48t-13.5 -66l-120 -215q-17 -30 -36 -47q18 -16 36 -46l120 -216q20 -35 13.5 -65.5t-45.5 -47.5l-102 -46zM441 525v39l262 402l102 -46q39 -17 45.5 -48t-13.5 -66l-120 -215q-17 -30 -36 -47q18 -16 36 -46l120 -216
q20 -35 13.5 -65.5t-45.5 -47.5l-102 -46z" />
    <glyph glyph-name="guillemotright" unicode="&#xbb;" horiz-adv-x="959" 
d="M102 123zM256 123l-102 46q-39 17 -45.5 47.5t13.5 65.5l120 216q15 28 36 46q-10 9 -19 21t-17 26l-120 215q-20 35 -13.5 66t45.5 48l102 46l262 -402v-39zM616 123l-102 46q-39 17 -45.5 47.5t13.5 65.5l120 216q15 28 36 46q-10 9 -19 21t-17 26l-120 215
q-20 35 -13.5 66t45.5 48l102 46l262 -402v-39z" />
    <glyph glyph-name="slash" unicode="/" horiz-adv-x="958" 
d="M345 12q-11 -27 -28.5 -48t-39 -35t-46 -21t-48.5 -7h-132l568 1491q20 51 61 78t95 27h132z" />
    <glyph glyph-name="bar" unicode="|" horiz-adv-x="540" 
d="M150 1557h240v-1897h-240v1897z" />
    <glyph glyph-name="backslash" unicode="\" horiz-adv-x="958" 
d="M51 1497h132q54 0 95 -27t61 -78l568 -1491h-132q-24 0 -48.5 7t-46 21t-39.5 35t-28 48z" />
    <glyph glyph-name="hyphen" unicode="-" horiz-adv-x="748" 
d="M104 733h540v-250h-540v250z" />
    <glyph glyph-name="hyphen" unicode="&#x2010;" horiz-adv-x="748" 
d="M104 733h540v-250h-540v250z" />
    <glyph glyph-name="hyphen" unicode="&#xad;" horiz-adv-x="748" 
d="M104 733h540v-250h-540v250z" />
    <glyph glyph-name="endash" unicode="&#x2013;" horiz-adv-x="1160" 
d="M170 713h820v-212h-820v212z" />
    <glyph glyph-name="emdash" unicode="&#x2014;" horiz-adv-x="1604" 
d="M111 713h1382v-212h-1382v212z" />
    <glyph glyph-name="underscore" unicode="_" horiz-adv-x="946" 
d="M867 -108v-194h-788v194h788z" />
    <glyph glyph-name="bullet" unicode="&#x2022;" horiz-adv-x="1160" 
d="M85 592q0 100 39 188t106 154t157 104t192 38q103 0 193 -38t157.5 -104t106.5 -154t39 -188q0 -99 -39 -187t-106.5 -153t-157.5 -103t-193 -38q-102 0 -192 38t-157 103t-106 153t-39 187z" />
    <glyph glyph-name="periodcentered" unicode="&#xb7;" horiz-adv-x="576" 
d="M63 596q0 45 17.5 85t48 69.5t71 46.5t87.5 17t88.5 -17t72 -46.5t48 -69.5t17.5 -85t-17.5 -84.5t-48 -69t-72 -46.5t-88.5 -17t-87.5 17t-71 46.5t-48 69t-17.5 84.5z" />
    <glyph glyph-name="periodcentered" unicode="&#x2219;" horiz-adv-x="576" 
d="M63 596q0 45 17.5 85t48 69.5t71 46.5t87.5 17t88.5 -17t72 -46.5t48 -69.5t17.5 -85t-17.5 -84.5t-48 -69t-72 -46.5t-88.5 -17t-87.5 17t-71 46.5t-48 69t-17.5 84.5z" />
    <glyph glyph-name="parenleft" unicode="(" horiz-adv-x="562" 
d="M326 626q0 -99 11.5 -199t34 -197t54 -189.5t72.5 -176.5q13 -24 15 -42.5t-3.5 -32.5t-16 -24t-23.5 -18l-138 -80q-73 112 -125 228t-85 235.5t-48.5 243.5t-15.5 252t15.5 252t48.5 243.5t85 235.5t125 229l138 -80q13 -8 23.5 -18t16 -24t3.5 -32.5t-15 -42.5
q-41 -84 -72.5 -176.5t-54 -190t-34 -197.5t-11.5 -199z" />
    <glyph glyph-name="parenright" unicode=")" horiz-adv-x="562" 
d="M236 626q0 99 -11.5 199t-34 197.5t-54.5 190t-72 176.5q-13 24 -15 42.5t3.5 32.5t16 24t23.5 18l138 80q145 -226 209.5 -465t64.5 -495q0 -257 -64.5 -495.5t-209.5 -463.5l-138 80q-13 8 -23.5 18t-16 24t-3.5 32.5t15 42.5q40 84 72 176.5t54.5 189.5t34 197
t11.5 199z" />
    <glyph glyph-name="bracketleft" unicode="[" horiz-adv-x="641" 
d="M150 -324v1881h448v-118q0 -31 -22.5 -53t-57.5 -22h-110v-1495h110q35 0 57.5 -22t22.5 -52v-119h-448z" />
    <glyph glyph-name="bracketright" unicode="]" horiz-adv-x="641" 
d="M43 1557h448v-1881h-448v119q0 30 22.5 52t57.5 22h110v1495h-110q-35 0 -57.5 22t-22.5 53v118z" />
    <glyph glyph-name="braceleft" unicode="{" horiz-adv-x="621" 
d="M152 397q0 60 -23 96.5t-83 36.5v173q30 0 50.5 10t32.5 27.5t17.5 42t5.5 53.5q0 44 -5.5 89t-12.5 90t-12.5 91t-5.5 92q0 81 23.5 147.5t73 113.5t125.5 72.5t182 25.5h52v-134q0 -16 -7 -27t-17 -18t-21 -10.5t-19 -3.5q-63 0 -92.5 -39t-29.5 -108q0 -55 4.5 -104
t9.5 -94.5t9.5 -89.5t4.5 -89q0 -38 -10 -73t-30.5 -64.5t-50.5 -52t-69 -34.5q39 -12 69 -34t50.5 -51.5t30.5 -65t10 -72.5q0 -45 -4.5 -89t-9.5 -89.5t-9.5 -94.5t-4.5 -104q0 -69 29.5 -108t92.5 -39q8 0 19 -3.5t21 -10.5t17 -18t7 -27v-134h-52q-106 0 -182 25.5
t-125.5 73t-73 113.5t-23.5 147q0 46 5.5 92t12.5 91t12.5 90t5.5 89z" />
    <glyph glyph-name="braceright" unicode="}" horiz-adv-x="621" 
d="M469 397q0 -44 5.5 -89t12.5 -90t12.5 -91t5.5 -92q0 -81 -23.5 -147t-73 -113.5t-125.5 -73t-182 -25.5h-52v134q0 16 7 27t17 18t21 10.5t19 3.5q63 0 92.5 39t29.5 108q0 55 -4.5 104t-9.5 94.5t-9.5 89.5t-4.5 89q0 37 10 72.5t30.5 65t50 51.5t68.5 34
q-39 12 -68.5 34.5t-50 52t-30.5 64.5t-10 73q0 45 4.5 89t9.5 89.5t9.5 94.5t4.5 104q0 69 -29.5 108t-92.5 39q-8 0 -19 3.5t-21 10.5t-17 18t-7 27v134h52q106 0 182 -25.5t125.5 -72.5t73 -113.5t23.5 -147.5q0 -46 -5.5 -92t-12.5 -91t-12.5 -90t-5.5 -89
q0 -29 5.5 -53.5t17.5 -42t32.5 -27.5t50.5 -10v-173q-60 0 -83 -36.5t-23 -96.5z" />
    <glyph glyph-name="asterisk" unicode="*" horiz-adv-x="850" 
d="M352 815v173q0 20 2.5 40.5t8.5 37.5q-25 -26 -63 -47l-146 -85l-72 119l146 85q19 11 38 19t39 12q-39 7 -77 32l-146 87l72 120l146 -88q18 -11 34.5 -22.5t29.5 -25.5q-12 34 -12 77v175h146v-173q0 -21 -2.5 -41t-8.5 -38q13 14 29 25.5t34 22.5l146 86l72 -120
l-146 -85q-20 -11 -39 -19t-39 -12q20 -4 39.5 -12.5t38.5 -19.5l146 -87l-72 -119l-146 87q-19 11 -35 22.5t-30 25.5q13 -35 13 -77v-175h-146z" />
    <glyph glyph-name="dagger" unicode="&#x2020;" horiz-adv-x="1160" 
d="M48 909q0 25 8.5 48t26 41t44.5 28.5t65 10.5q28 0 60.5 -5t66.5 -12.5t69.5 -16t70.5 -15.5l-39 489q33 19 74 28.5t86 9.5t86 -9.5t74 -28.5l-40 -489q35 7 70.5 15.5t70 16t66.5 12.5t61 5q37 0 64.5 -10.5t45 -28.5t26 -41t8.5 -48v-100h-412v-304l40 -819
q-33 -19 -74 -29t-86 -10t-86 10t-74 29l40 819v304h-412v100z" />
    <glyph glyph-name="daggerdbl" unicode="&#x2021;" horiz-adv-x="1160" 
d="M48 353h412v456h-412v100q0 25 8.5 48t26 41t44.5 28.5t65 10.5q28 0 60.5 -5t66.5 -12.5t69.5 -16t70.5 -15.5l-39 489q33 19 74 28.5t86 9.5t86 -9.5t74 -28.5l-40 -489q35 7 70.5 15.5t70 16t66.5 12.5t61 5q37 0 64.5 -10.5t45 -28.5t26 -41t8.5 -48v-100h-412v-456
h412v-99q0 -25 -8.5 -48.5t-26 -41.5t-45 -28.5t-64.5 -10.5q-29 0 -61 5t-66.5 12.5t-70 16t-70.5 15.5l40 -488q-33 -19 -74 -29t-86 -10t-86 10t-74 29l39 488q-35 -7 -70.5 -15.5t-69.5 -16t-66.5 -12.5t-60.5 -5q-38 0 -65 10.5t-44.5 28.5t-26 41.5t-8.5 48.5v99z" />
    <glyph glyph-name="section" unicode="&#xa7;" horiz-adv-x="1023" 
d="M835 1228q-12 -19 -25.5 -26.5t-34.5 -7.5q-22 0 -44 9t-47.5 20.5t-57.5 20.5t-73 9q-72 0 -107 -27t-35 -69q0 -26 23 -47t61 -40t86.5 -38t99.5 -41t99.5 -49t86.5 -62.5t61 -81.5t23 -105q0 -80 -37 -146.5t-119 -108.5q43 -37 69.5 -85.5t26.5 -116.5
q0 -77 -28 -142t-83.5 -112t-137 -73t-187.5 -26q-53 0 -106 10t-102.5 27t-91.5 40.5t-72 50.5l72 114q12 20 30.5 31.5t47.5 11.5q27 0 48.5 -12t48 -26t62 -26t91.5 -12q65 0 101.5 23.5t36.5 70.5q0 37 -23.5 62.5t-61.5 45.5t-87 37t-100 37t-100 45t-87 60.5
t-61.5 84.5t-23.5 117q0 78 39 141t119 101q-44 40 -71 94t-27 132q0 66 25.5 125.5t76.5 104.5t128 71.5t180 26.5q56 0 108.5 -10t98.5 -28t84 -42.5t67 -53.5zM351 724q0 -35 24 -61t63 -47.5t89 -41t102 -41.5q28 17 40 41t12 51q0 36 -24 61.5t-63 46.5t-88.5 40
t-100.5 42q-29 -19 -41.5 -40.5t-12.5 -50.5z" />
    <glyph glyph-name="paragraph" unicode="&#xb6;" horiz-adv-x="1540" 
d="M1468 1457v-251h-210v-1422h-270v1422h-196v-1422h-270v822q-104 0 -189.5 34t-146 91.5t-93.5 134t-33 162.5q0 94 33 173t93.5 136t146 88.5t189.5 31.5h946z" />
    <glyph glyph-name="asciicircum" unicode="^" horiz-adv-x="1160" 
d="M1092 669h-228q-27 0 -45 13.5t-29 34.5l-154 336q-19 37 -32.5 70.5t-24.5 65.5q-21 -65 -53 -136l-140 -336q-9 -21 -28.5 -34.5t-49.5 -13.5h-240l406 788h202z" />
    <glyph glyph-name="asciitilde" unicode="~" horiz-adv-x="1160" 
d="M733 677q48 0 74 31t26 91h250q0 -85 -22.5 -153t-64.5 -115.5t-103.5 -73t-139.5 -25.5q-53 0 -99.5 11.5t-86.5 26t-73.5 26t-60.5 11.5q-48 0 -74 -31t-26 -91h-250q0 85 22.5 153t64.5 115.5t103.5 73t139.5 25.5q53 0 99.5 -11.5t86.5 -26t73.5 -26t60.5 -11.5z" />
    <glyph glyph-name="quotesingle" unicode="'" horiz-adv-x="436" 
d="M353 1457v-286l-28 -158q-9 -54 -32 -82.5t-76 -28.5q-45 0 -70 28.5t-36 82.5l-28 158v286h270z" />
    <glyph glyph-name="quotedbl" unicode="&#x22;" horiz-adv-x="836" 
d="M83 902zM353 1457v-286l-28 -158q-9 -54 -32 -82.5t-76 -28.5q-45 0 -70 28.5t-36 82.5l-28 158v286h270zM753 1457v-286l-28 -158q-9 -54 -32 -82.5t-76 -28.5q-45 0 -70 28.5t-36 82.5l-28 158v286h270z" />
    <glyph glyph-name="ampersand" unicode="&#x26;" horiz-adv-x="1467" 
d="M677 1473q97 0 171 -28.5t125 -75t80 -107.5t36 -125l-200 -40q-53 -12 -78 42q-23 52 -53.5 79t-80.5 27q-35 0 -61 -13t-43.5 -34t-26.5 -49t-9 -58q0 -26 4.5 -49.5t15.5 -48t29.5 -50.5t46.5 -57l360 -380q27 60 44 125t22 135q3 28 19 44t43 16h196
q0 -146 -39 -272.5t-111 -231.5l306 -322h-306q-23 0 -41 2.5t-33.5 8.5t-29.5 17t-30 28l-63 66q-95 -66 -207.5 -102t-239.5 -36q-87 0 -170.5 30t-148.5 85.5t-105 134.5t-40 177q0 66 20.5 125t57.5 109.5t88.5 92t112.5 72.5q-47 73 -68 143t-21 136q0 78 28.5 147.5
t83 122t134 83.5t182.5 31zM579 223q67 0 124.5 17.5t107.5 49.5l-335 355q-55 -45 -78 -98t-23 -111q0 -48 14.5 -87t41.5 -67t64.5 -43.5t83.5 -15.5z" />
    <glyph glyph-name="at" unicode="@" horiz-adv-x="1699" 
d="M1195 182q-32 0 -62 6.5t-56.5 21t-48 38t-34.5 57.5q-60 -66 -125 -94t-140 -28q-65 0 -114 22.5t-82 62.5t-49.5 95t-16.5 120q0 57 14.5 116t43.5 113.5t73.5 103t104.5 84t136.5 56.5t169.5 21q44 0 80 -3.5t67 -9.5t58.5 -15.5t56.5 -21.5l-98 -379
q-13 -54 -13.5 -89t9 -55.5t28 -29t44.5 -8.5q36 0 67.5 25.5t54.5 70.5t36.5 106t13.5 133q0 124 -37 218.5t-105.5 158.5t-165 97t-214.5 33q-129 0 -237 -48t-186 -131.5t-121.5 -195t-43.5 -238.5q0 -160 48.5 -281t134 -202t203 -121.5t254.5 -40.5q79 0 145.5 8.5
t120.5 22t96 30.5t72 34q32 17 55.5 10t34.5 -35l42 -108q-50 -33 -110.5 -61t-131 -49t-151.5 -32.5t-173 -11.5q-188 0 -346 58.5t-273.5 167.5t-180 264t-64.5 347q0 105 28 206t80 190t125 164t163 129.5t195 84.5t221 30q97 0 189.5 -22t175 -64t152 -103t119.5 -138.5
t78 -171t28 -199.5q0 -107 -32.5 -201.5t-91 -165t-139 -111.5t-175.5 -41zM791 374q22 0 43.5 7t40.5 23.5t34.5 43.5t25.5 67l70 273q-24 3 -48 3q-50 0 -96 -24t-80.5 -65t-55 -95.5t-20.5 -115.5q0 -59 22.5 -88t63.5 -29z" />
    <glyph glyph-name="copyright" unicode="&#xa9;" horiz-adv-x="1634" 
d="M1016 542q12 0 23 -6t19 -15l102 -105q-54 -75 -141.5 -113.5t-202.5 -38.5q-101 0 -182.5 36.5t-138.5 100t-88 148.5t-31 183q0 102 36 187.5t98.5 148t146.5 97t181 34.5q115 0 198 -40t134 -100l-82 -109q-8 -8 -20 -18.5t-32 -10.5t-34.5 9t-32.5 20t-44.5 20
t-70.5 9q-101 0 -152.5 -66.5t-51.5 -180.5q0 -60 13.5 -106t37.5 -77t57.5 -47t73.5 -16q47 0 74.5 8.5t45.5 18.5t31 19t33 10zM72 729q0 103 26.5 198t75 177.5t116.5 150.5t151 116.5t177.5 75t197.5 26.5t198.5 -26.5t178 -75t151 -116.5t117 -150.5t75 -177.5
t26.5 -198q0 -102 -26.5 -197t-75 -177.5t-117 -150.5t-151 -116.5t-178 -75t-198.5 -26.5t-197.5 26.5t-177.5 75t-151 116.5t-116.5 150.5t-75 177t-26.5 197.5zM238 729q0 -127 44.5 -237t122.5 -191.5t183.5 -128t227.5 -46.5q123 0 229.5 46.5t185.5 128t124 191.5
t45 237q0 85 -20.5 163t-58 145.5t-90.5 123t-118 94.5t-140 60.5t-157 21.5q-122 0 -227.5 -47t-183.5 -129.5t-122.5 -193.5t-44.5 -238z" />
    <glyph glyph-name="registered" unicode="&#xae;" horiz-adv-x="1634" 
d="M72 729q0 103 26.5 198t75 177.5t116.5 150.5t151 116.5t177.5 75t197.5 26.5t198.5 -26.5t178 -75t151 -116.5t117 -150.5t75 -177.5t26.5 -198q0 -102 -26.5 -197t-75 -177.5t-117 -150.5t-151 -116.5t-178 -75t-198.5 -26.5t-197.5 26.5t-177.5 75t-151 116.5
t-116.5 150.5t-75 177t-26.5 197.5zM238 729q0 -127 44.5 -237t122.5 -191.5t183.5 -128t227.5 -46.5q115 0 215.5 41t178.5 114h-216q-55 0 -76 39l-92 231q-11 17 -23.5 24.5t-36.5 7.5h-32v-302h-268v901h352q100 0 172.5 -18t119 -52t68.5 -84t22 -114q0 -42 -10 -80.5
t-30.5 -71t-53 -58.5t-77.5 -43q29 -15 48.5 -39t36.5 -56l124 -257q76 81 119 188t43 232q0 85 -20.5 163t-58 145.5t-90.5 123t-118 94.5t-140 60.5t-157 21.5q-122 0 -227.5 -47t-183.5 -129.5t-122.5 -193.5t-44.5 -238zM734 767h64q48 0 75.5 7.5t41.5 21.5t17.5 35.5
t3.5 48.5q0 26 -3.5 45.5t-15.5 33t-35.5 20.5t-63.5 7h-84v-219z" />
    <glyph glyph-name="trademark" unicode="&#x2122;" horiz-adv-x="1524" 
d="M982 1209q19 -42 33 -84q7 21 15.5 42t19.5 42l100 217q17 20 29.5 25.5t38.5 5.5h184v-613h-186v252l14 113l-126 -269q-22 -44 -72 -44h-30q-50 0 -72 44l-120 264l12 -108v-252h-186v613h184q13 0 22.5 -1t17 -4.5t14 -9.5t14.5 -16zM586 1457v-169h-150v-444h-212
v444h-148v169h510z" />
    <glyph glyph-name="degree" unicode="&#xb0;" horiz-adv-x="832" 
d="M51 1119q0 74 28 139t77 113t115.5 76t143.5 28t144 -28t116.5 -76t77.5 -113t28 -139q0 -72 -28 -136.5t-77.5 -112.5t-116.5 -76.5t-144 -28.5t-143.5 28.5t-115.5 76.5t-77 112.5t-28 136.5zM265 1117q0 -33 11 -61.5t31 -50t47.5 -33.5t60.5 -12t60.5 12t47.5 33.5
t31 50t11 61.5q0 34 -11 63.5t-31 51t-47.5 34t-60.5 12.5t-60.5 -12.5t-47.5 -34t-31 -51t-11 -63.5z" />
    <glyph glyph-name="Euro" unicode="&#x20ac;" horiz-adv-x="1160" 
d="M29 950h120q25 118 77 214.5t125 164.5t165 105t197 37q142 0 245.5 -56.5t166.5 -149.5l-110 -114q-12 -14 -26 -24.5t-38 -10.5t-40.5 15t-38.5 33.5t-55 33.5t-90 15q-94 0 -160.5 -66.5t-97.5 -196.5h460v-92q0 -13 -6 -26t-17 -23.5t-26.5 -17t-34.5 -6.5h-397
q-1 -14 -1 -28v-28v-35h386v-92q0 -13 -6 -26t-17 -23.5t-26.5 -17t-34.5 -6.5h-286q26 -145 91 -215t159 -70q42 0 72 8.5t51 20.5t35.5 27t27 27t25 20.5t29.5 8.5q14 0 23.5 -4t20.5 -15l136 -121q-69 -113 -181 -171.5t-255 -58.5q-119 0 -213.5 39.5t-164 110.5
t-114 171t-63.5 222h-113v165h98v35v28t1 28h-99v165z" />
    <glyph glyph-name="dollar" unicode="$" horiz-adv-x="1160" 
d="M435 -5q-115 19 -219.5 66.5t-176.5 114.5l96 139q12 17 32.5 28.5t43.5 11.5q24 0 49 -12.5t54.5 -30.5t64.5 -36.5t80 -30.5l37 378q-72 20 -143 47t-128 73t-92.5 117t-35.5 178q0 79 32 154t93.5 135t151.5 98.5t206 44.5l11 111q2 28 24.5 50.5t57.5 22.5h114
l-20 -197q108 -20 186 -64.5t132 -95.5l-76 -111q-17 -25 -34.5 -36.5t-41.5 -11.5q-16 0 -36 7t-44 17.5t-51.5 22.5t-58.5 21l-35 -355q48 -14 96 -30.5t92.5 -38t83 -49.5t67 -66t44.5 -87.5t16 -112.5q0 -95 -32 -178.5t-94 -147.5t-152 -104.5t-206 -49.5l-12 -125
q-2 -28 -24.5 -50.5t-57.5 -22.5h-114zM813 421q0 57 -36.5 91t-96.5 57l-32 -330q165 29 165 182zM389 1068q0 -59 37.5 -95.5t98.5 -61.5l30 302q-46 -7 -77.5 -20.5t-51 -32.5t-28.5 -42.5t-9 -49.5z" />
    <glyph glyph-name="cent" unicode="&#xa2;" horiz-adv-x="1160" 
d="M509 -6q-86 16 -161 58t-130.5 109t-87 157t-31.5 201q0 108 33.5 202.5t99.5 165.5t162.5 114t222.5 49l14 140q3 27 25 50t57 23h114l-23 -227q75 -17 138 -51t117 -85l-80 -105q-12 -17 -25 -26t-37 -9q-15 0 -29 5t-30 12.5t-35 16t-42 16.5l-61 -598q43 6 72 19.5
t51.5 27t41.5 23.5t42 10q18 0 32.5 -7t23.5 -18l86 -107q-40 -44 -84.5 -74.5t-91.5 -51t-96.5 -31.5t-99.5 -15l-12 -126q-3 -27 -25 -50t-57 -23h-114zM405 519q0 -108 33 -179t96 -104l59 584q-98 -20 -143 -98t-45 -203z" />
    <glyph glyph-name="sterling" unicode="&#xa3;" horiz-adv-x="1160" 
d="M27 685q0 40 25.5 69.5t76.5 29.5h84v216q0 95 29 180.5t88.5 150.5t149 103.5t211.5 38.5q81 0 146.5 -20.5t117 -57t90.5 -86t68 -106.5l-124 -78q-42 -22 -81.5 -19.5t-72.5 37.5q-38 39 -69 58t-75 19q-81 0 -120.5 -56.5t-39.5 -162.5v-217h380v-118
q0 -15 -6.5 -28.5t-18 -24.5t-27 -17.5t-34.5 -6.5h-294v-156q0 -60 -22.5 -108.5t-60.5 -90.5q45 10 90 15.5t91 5.5h502v-127q0 -22 -9.5 -45t-26.5 -41.5t-41.5 -30t-54.5 -11.5h-954v186q33 6 63.5 19t53.5 33t37 48t14 65v238h-186v96z" />
    <glyph glyph-name="yen" unicode="&#xa5;" horiz-adv-x="1160" 
d="M125 639h248l-390 818h258q44 0 71 -19.5t41 -53.5l166 -425q22 -53 37.5 -98t26.5 -89q17 86 60 187l164 425q12 28 40 50.5t70 22.5h260l-391 -818h249v-165h-300v-88h300v-165h-300v-221h-310v221h-300v165h300v88h-300v165z" />
    <glyph glyph-name="numbersign" unicode="#" horiz-adv-x="1160" 
d="M859 395l-70 -395h-144q-21 0 -39.5 10t-31 27t-17.5 39t0 47l48 272h-165l-49 -287q-5 -29 -18.5 -49.5t-32 -33.5t-41 -19t-46.5 -6h-138l70 395h-88q-47 0 -67 27.5t-9 93.5l16 96h177l42 236h-199l24 126q9 46 39.5 68t96.5 22h68l52 293q9 47 45.5 73.5t84.5 26.5
h142l-70 -393h166l70 393h138q24 0 43.5 -8t33 -21.5t19.5 -32t2 -40.5l-52 -291h194l-24 -126q-9 -47 -39.5 -68.5t-96.5 -21.5h-63l-42 -236h109q47 0 67 -27.5t9 -93.5l-16 -96h-198zM468 612h166l42 236h-166z" />
    <glyph glyph-name="zero" unicode="0" horiz-adv-x="1160" 
d="M1120 729q0 -191 -41 -331t-113.5 -232t-172 -137t-215.5 -45t-214.5 45t-170.5 137t-112.5 232t-40.5 331t40.5 331t112.5 232t170.5 136.5t214.5 44.5t215.5 -44.5t172 -136.5t113.5 -232t41 -331zM800 729q0 151 -19 247.5t-50.5 151.5t-71.5 75.5t-81 20.5
t-80.5 -20.5t-70 -75.5t-49 -151.5t-18.5 -247.5q0 -152 18.5 -248t49 -151.5t70 -76t80.5 -20.5t81 20.5t71.5 76t50.5 151.5t19 248z" />
    <glyph glyph-name="one" unicode="1" horiz-adv-x="1160" 
d="M221 224h280v735q0 54 3 113l-165 -137q-22 -17 -43.5 -20.5t-40.5 0t-34 13t-22 19.5l-98 130l454 381h256v-1234h240v-224h-830v224z" />
    <glyph glyph-name="two" unicode="2" horiz-adv-x="1160" 
d="M596 1473q108 0 194.5 -31.5t147.5 -87.5t93.5 -133.5t32.5 -170.5q0 -80 -22.5 -148t-61.5 -129.5t-90.5 -119t-109.5 -116.5l-285 -292q55 16 108.5 25.5t100.5 9.5h272q50 0 79 -27.5t29 -72.5v-180h-1024v100q0 29 12 62t42 60l420 423q54 54 94 103t66 96.5t39 95
t13 100.5q0 87 -41.5 133.5t-126.5 46.5q-69 0 -116.5 -36.5t-65.5 -90.5q-21 -55 -55 -73t-97 -8l-164 29q16 109 61.5 190t113 135t154.5 80.5t187 26.5z" />
    <glyph glyph-name="three" unicode="3" horiz-adv-x="1160" 
d="M604 1473q108 0 192 -30.5t142 -82.5t88 -120.5t30 -144.5q0 -69 -14 -121.5t-41.5 -91t-68 -65.5t-92.5 -45q242 -84 242 -329q0 -116 -42 -202t-112.5 -143t-163.5 -85.5t-194 -28.5q-104 0 -185 22.5t-144 70t-110.5 121.5t-82.5 176l138 56q54 21 100 11t66 -46
q45 -83 95.5 -120.5t118.5 -37.5q52 0 90.5 17.5t64 45t38.5 62.5t13 71q0 47 -6.5 84.5t-36.5 64.5t-90.5 41.5t-168.5 14.5v214q91 0 147 14t86.5 38.5t40.5 59.5t10 77q0 86 -41.5 132.5t-126.5 46.5q-69 0 -116.5 -36.5t-65.5 -90.5q-21 -55 -55 -73t-97 -8l-164 29
q16 109 61.5 190t113 135t154.5 80.5t187 26.5z" />
    <glyph glyph-name="four" unicode="4" horiz-adv-x="1160" 
d="M965 566h150v-174q0 -23 -15.5 -40t-44.5 -17h-90v-335h-270v335h-586q-29 0 -52.5 18t-29.5 45l-32 153l674 906h296v-891zM695 946q0 35 2.5 75.5t7.5 83.5l-385 -539h375v380z" />
    <glyph glyph-name="five" unicode="5" horiz-adv-x="1160" 
d="M1015 1329q0 -32 -10 -58t-31.5 -45.5t-56.5 -30t-84 -10.5h-348l-41 -241q41 7 79 10.5t74 3.5q115 0 203 -35t148 -95.5t90.5 -142t30.5 -174.5q0 -117 -41.5 -213.5t-115.5 -166.5t-176.5 -108.5t-224.5 -38.5q-71 0 -135.5 15t-121 40.5t-104.5 59t-87 71.5l96 128
q15 20 35 30.5t43 10.5q30 0 56.5 -16.5t58 -36t73.5 -35.5t104 -16t106 20.5t71.5 56t40 83t12.5 101.5q0 106 -60 161.5t-170 55.5q-98 0 -192 -37l-192 52l124 729h746v-128z" />
    <glyph glyph-name="seven" unicode="7" horiz-adv-x="1160" 
d="M1103 1457v-130q0 -58 -13 -93.5t-25 -59.5l-506 -1072q-21 -42 -59.5 -72t-102.5 -30h-226l520 1043q23 42 46.5 76.5t52.5 65.5h-641q-14 0 -26.5 5.5t-22 15t-15.5 22t-6 25.5v204h1024z" />
    <glyph glyph-name="nine" unicode="9" horiz-adv-x="1160" 
d="M621 552q14 17 26.5 32.5t24.5 31.5q-45 -24 -98 -36t-111 -12q-71 0 -142 25.5t-128.5 77.5t-93.5 131t-36 187q0 99 36.5 187t104 154t161.5 104.5t210 38.5q118 0 211 -36t157.5 -101t99 -154.5t34.5 -197.5q0 -143 -43 -256t-115 -213l-314 -446q-21 -29 -63.5 -49
t-96.5 -20h-286zM781 1012q0 53 -15.5 93.5t-43 67.5t-66.5 41t-85 14q-47 0 -83.5 -16.5t-62 -45.5t-39 -68.5t-13.5 -85.5q0 -218 202 -218q99 0 152.5 59.5t53.5 158.5z" />
    <glyph glyph-name="fraction" unicode="&#x2044;" horiz-adv-x="280" 
d="M-147 85q-16 -25 -32.5 -41.5t-35 -26t-39.5 -13.5t-45 -4h-132l848 1359q30 47 68 72.5t92 25.5h132z" />
    <glyph glyph-name="plus" unicode="+" horiz-adv-x="1160" 
d="M705 1179v-396h370v-222h-370v-398h-252v398h-368v222h368v396h252z" />
    <glyph glyph-name="divide" unicode="&#xf7;" horiz-adv-x="1160" 
d="M85 783h990v-222h-990v222zM403 1028q0 36 13.5 67t37 54t55.5 36.5t70 13.5q37 0 69 -13.5t56 -36.5t37.5 -54t13.5 -67t-13.5 -67.5t-37.5 -54.5t-56 -36t-69 -13q-38 0 -70 13t-55.5 36t-37 54.5t-13.5 67.5zM403 316q0 36 13.5 67t37 54t55.5 36.5t70 13.5
q37 0 69 -13.5t56 -36.5t37.5 -54t13.5 -67t-13.5 -67.5t-37.5 -54.5t-56 -36t-69 -13q-38 0 -70 13t-55.5 36t-37 54.5t-13.5 67.5z" />
    <glyph glyph-name="equal" unicode="=" horiz-adv-x="1160" 
d="M125 599h910v-222h-910v222zM125 966h910v-223h-910v223z" />
    <glyph glyph-name="notequal" unicode="&#x2260;" horiz-adv-x="1160" 
d="M125 966h512l108 204h220l-108 -204h178v-223h-295l-76 -144h371v-222h-487l-117 -223h-220l117 223h-203v222h319l76 144h-395v223z" />
    <glyph glyph-name="approxequal" unicode="&#x2248;" horiz-adv-x="1160" 
d="M794 926q34 0 65.5 8t57 18.5t43.5 21.5t24 17l34 -191q-21 -27 -49 -46t-59.5 -31t-66.5 -17.5t-69 -5.5q-53 0 -106.5 14.5t-104.5 32.5t-99 32.5t-90 14.5q-35 0 -67 -7.5t-58.5 -18.5t-44.5 -23t-24 -20l-42 184q21 30 49.5 51t62 34.5t70 19.5t74.5 6
q53 0 106.5 -14.5t104.5 -32.5t99 -32.5t90 -14.5zM794 556q34 0 65.5 7.5t57 18t43.5 21.5t24 18l34 -192q-21 -27 -49 -45.5t-59.5 -30.5t-66.5 -17.5t-69 -5.5q-53 0 -106.5 14.5t-104.5 32t-99 32t-90 14.5q-35 0 -67 -7.5t-58.5 -18.5t-44.5 -22.5t-24 -19.5l-42 184
q21 29 49.5 50t62 34.5t70 19.5t74.5 6q53 0 106.5 -14.5t104.5 -32t99 -32t90 -14.5z" />
    <glyph glyph-name="less" unicode="&#x3c;" horiz-adv-x="1160" 
d="M142 735l810 424v-215q0 -23 -11.5 -42.5t-38.5 -33.5l-284 -153q-26 -13 -55 -23t-61 -18q32 -8 61 -17t55 -22l284 -154q27 -13 38.5 -32.5t11.5 -42.5v-215l-810 423v121z" />
    <glyph glyph-name="greater" unicode="&#x3e;" horiz-adv-x="1160" 
d="M1018 614l-810 -423v215q0 23 11.5 42.5t38.5 32.5l284 154q26 13 55 22t61 17q-64 15 -116 41l-284 153q-27 14 -38.5 33.5t-11.5 42.5v215l810 -424v-121z" />
    <glyph glyph-name="plusminus" unicode="&#xb1;" horiz-adv-x="1160" 
d="M705 1272v-336h370v-223h-370v-319h-252v319h-368v223h368v336h252zM85 302h990v-222h-990v222z" />
    <glyph glyph-name="lessequal" unicode="&#x2264;" horiz-adv-x="1160" 
d="M162 878l810 381v-206q0 -23 -12.5 -44.5t-51.5 -36.5l-270 -117q-61 -21 -130 -36q36 -8 68.5 -17.5t61.5 -20.5l269 -121q39 -16 52 -37t13 -44v-206l-810 384v121zM162 302h810v-222h-810v222z" />
    <glyph glyph-name="greaterequal" unicode="&#x2265;" horiz-adv-x="1160" 
d="M998 878v-121l-810 -384v206q0 23 13 44t52 37l269 121q29 11 61.5 20.5t67.5 17.5q-71 15 -129 36l-270 117q-39 15 -51.5 36.5t-12.5 44.5v206zM998 80h-810v222h810v-222z" />
    <glyph glyph-name="logicalnot" unicode="&#xac;" horiz-adv-x="1160" 
d="M118 783h910v-501h-262v279h-648v222z" />
    <glyph glyph-name="infinity" unicode="&#x221e;" horiz-adv-x="1454" 
d="M1035 214q-54 0 -99.5 13t-83 35.5t-68.5 53t-57 65.5q-27 -35 -58 -65.5t-68.5 -53t-82.5 -35.5t-99 -13q-70 0 -133 28t-110.5 78.5t-75.5 119.5t-28 152q0 82 28 151.5t75.5 119.5t110.5 78t133 28q54 0 99 -13t82.5 -36t68.5 -53.5t58 -64.5q26 34 57 64.5t68.5 53.5
t83 36t99.5 13q70 0 133 -28t110.5 -78t75.5 -119.5t28 -151.5q0 -83 -28 -152t-75.5 -119.5t-110.5 -78.5t-133 -28zM432 456q25 0 47.5 10.5t42 28.5t37.5 43t36 54q-18 29 -36 54t-37.5 43t-42 28.5t-47.5 10.5q-23 0 -44 -7t-37.5 -23t-26.5 -42t-10 -64t10 -64
t26.5 -42t37.5 -23t44 -7zM1023 456q23 0 44 7t37.5 23t26 42t9.5 64t-10 64t-26 42t-37.5 23t-43.5 7q-26 0 -48 -10.5t-42 -28.5t-38 -43t-36 -54q18 -29 36 -54t38 -43t42 -28.5t48 -10.5z" />
    <glyph glyph-name="partialdiff" unicode="&#x2202;" horiz-adv-x="1179" 
d="M275 1333q42 32 85 57.5t90.5 43t102.5 27t122 9.5q96 0 178 -38.5t142 -111.5t94 -177t34 -235q0 -212 -38.5 -383t-116.5 -291t-196 -185t-277 -65q-95 0 -176 31t-140 88t-92.5 138t-33.5 182q0 118 41 218.5t112.5 174t168 115.5t206.5 42q91 0 155 -27t109 -77v37
q0 83 -16 145t-44.5 102.5t-68 60.5t-85.5 20q-33 0 -65 -10t-60.5 -22t-52.5 -22t-42 -10q-17 0 -33.5 9.5t-34.5 38.5zM531 216q42 0 83.5 17.5t78 59t65.5 110t47 169.5q-9 34 -23.5 64.5t-37 54t-55 37t-76.5 13.5q-63 0 -108.5 -23t-74.5 -64.5t-43 -99.5t-14 -127
q0 -101 41.5 -156t116.5 -55z" />
    <glyph glyph-name="integral" unicode="&#x222b;" horiz-adv-x="994" 
d="M414 1230q13 105 48.5 181.5t89.5 127t125 74.5t156 24q38 0 82.5 -8.5t85.5 -28.5l-16 -126q-2 -15 -5 -26.5t-11.5 -19.5t-23 -12.5t-38.5 -4.5q-57 0 -93 -10t-58 -31t-32 -53.5t-15 -77.5l-127 -1167q-14 -105 -49 -182t-89 -127.5t-125 -74.5t-156 -24
q-38 0 -82.5 8.5t-85.5 29.5l16 126q1 15 4.5 26.5t12 19.5t23 12t38.5 4q57 0 93 10t58 31t32 53.5t15 78.5z" />
    <glyph glyph-name="radical" unicode="&#x221a;" horiz-adv-x="1234" 
d="M209 624h-73q-23 0 -44 6.5t-37 21t-25.5 37.5t-9.5 56v96h368q33 0 55.5 -15.5t30.5 -38.5l58 -231q16 -48 26 -97.5t17 -100.5q7 39 16 78.5t21 81.5l344 1129q8 23 30 38.5t52 15.5h206l-546 -1701h-262z" />
    <glyph glyph-name="product" unicode="&#x220f;" horiz-adv-x="1436" 
d="M1366 1457v-251h-150v-1535h-320v1535h-356v-1535h-320v1535h-150v251h1296z" />
    <glyph glyph-name="summation" unicode="&#x2211;" horiz-adv-x="1367" 
d="M69 1457h1216v-251h-742l464 -598v-88l-465 -599h743v-250h-1216v103q0 22 7.5 45.5t24.5 43.5l564 705l-564 696q-17 20 -24.5 44t-7.5 46v103z" />
    <glyph glyph-name="lozenge" unicode="&#x25ca;" horiz-adv-x="1160" 
d="M60 734l412 804h216l412 -804l-412 -804h-216zM362 734l150 -342q24 -50 40.5 -98.5t27.5 -98.5q11 49 28 97.5t42 98.5l154 343l-161 356q-22 44 -37 88t-26 91q-11 -46 -25.5 -90t-34.5 -86z" />
    <glyph glyph-name="florin" unicode="&#x192;" horiz-adv-x="724" 
d="M166 824l-68 14q-35 8 -56.5 25t-21.5 50v122h146v59q0 89 28.5 161t82 123t130.5 79t175 28q38 0 70 -4.5t67 -14.5l-6 -151q-1 -16 -8 -26.5t-18.5 -17t-24.5 -9.5t-26 -3q-41 0 -73 -8t-53.5 -28.5t-32.5 -54t-11 -84.5v-49h243v-212h-233v-796q0 -91 -23 -168.5
t-73 -133.5t-128 -88t-187 -32q-29 0 -54.5 2.5t-49.5 7.5t-48 13.5t-51 19.5l34 131q10 35 27.5 46t39.5 11q9 0 16 -1.5t15 -3.5t18 -3.5t24 -1.5q66 0 98 40t32 125v833z" />
    <glyph glyph-name="l" unicode="l" horiz-adv-x="520" 
d="M415 1497v-1497h-310v1497h310z" />
    <glyph glyph-name="six" unicode="6" horiz-adv-x="1160" 
d="M566 941q-10 -11 -19.5 -22.5t-18.5 -22.5q35 13 73.5 20t82.5 7q79 0 156 -26t138 -80t98.5 -136.5t37.5 -194.5q0 -102 -38 -193.5t-107.5 -160t-167.5 -108.5t-217 -40q-122 0 -219 38.5t-164.5 107.5t-103 165t-35.5 211q0 215 166 437l328 443q23 29 66.5 50
t99.5 21h276zM360 464q0 -54 13 -97t40 -74t68 -47.5t97 -16.5q48 0 89.5 18t71.5 49.5t47.5 74t17.5 92.5q0 56 -16.5 100t-46.5 74t-72.5 46t-94.5 16q-47 0 -86 -16.5t-67.5 -47.5t-44.5 -74t-16 -97z" />
    <glyph glyph-name="eight" unicode="8" horiz-adv-x="1160" 
d="M580 -16q-116 0 -212 31t-164.5 87.5t-106 136.5t-37.5 178q0 59 13.5 111.5t43 96t76 77.5t112.5 57q-100 45 -148.5 125t-48.5 192q0 85 35 157.5t98 125.5t149.5 83.5t189.5 30.5t189.5 -30.5t149.5 -83.5t98 -125.5t35 -157.5q0 -112 -49 -192t-148 -125
q65 -23 111.5 -57t76 -77.5t43.5 -96t14 -111.5q0 -98 -37.5 -178t-106 -136.5t-164.5 -87.5t-212 -31zM580 218q52 0 90 16t62.5 43.5t36 65t11.5 80.5q0 47 -10 86t-33 66.5t-61.5 43t-95.5 15.5t-95.5 -15.5t-61.5 -43t-33 -66.5t-10 -86q0 -43 11.5 -80.5t36 -65
t62 -43.5t90.5 -16zM580 870q52 0 85 17t52 45t26 64t7 74q0 34 -9 66t-29.5 56.5t-53 39.5t-78.5 15q-47 0 -79 -15t-52.5 -39.5t-29.5 -56.5t-9 -66q0 -38 7 -74t26 -64t52 -45t85 -17z" />
    <glyph glyph-name="percent" unicode="%" horiz-adv-x="1672" 
d="M766 1104q0 -80 -29 -146t-77 -113.5t-111.5 -73.5t-132.5 -26q-76 0 -139.5 26t-110 73.5t-72.5 113.5t-26 146q0 83 26 150.5t72.5 115.5t110 74.5t139.5 26.5t140.5 -26.5t111 -74.5t72.5 -115.5t26 -150.5zM528 1104q0 51 -8.5 84.5t-23.5 53.5t-35.5 28t-44.5 8
t-44 -8t-34 -28t-22 -53.5t-8 -84.5q0 -48 8 -80t22 -51t34 -27t44 -8t44.5 8t35.5 27t23.5 51t8.5 80zM1224 1411q15 17 37 31.5t61 14.5h226l-1098 -1413q-15 -19 -37.5 -31.5t-54.5 -12.5h-232zM1604 342q0 -80 -29 -146.5t-77 -114t-111.5 -73.5t-132.5 -26
q-76 0 -139.5 26t-110 73.5t-72.5 114t-26 146.5q0 83 26 150.5t72.5 115.5t110 74.5t139.5 26.5t140.5 -26.5t111 -74.5t72.5 -115.5t26 -150.5zM1366 342q0 50 -8.5 83.5t-23.5 53.5t-35.5 28t-44.5 8t-44 -8t-34 -28t-22 -53.5t-8 -83.5q0 -48 8 -80t22 -51t34 -27t44 -8
t44.5 8t35.5 27t23.5 51t8.5 80z" />
    <glyph glyph-name="exclamdown" unicode="&#xa1;" horiz-adv-x="573" 
d="M143 -329v527q0 92 11 183t29 184h210q18 -93 29 -184t11 -183v-527h-290zM109 882q0 36 13.5 67.5t37 54.5t55.5 36t70 13q37 0 69 -13t56 -36t37.5 -54.5t13.5 -67.5t-13.5 -67t-37.5 -54t-56 -36.5t-69 -13.5q-38 0 -70 13.5t-55.5 36.5t-37 54t-13.5 67z" />
    <glyph glyph-name="questiondown" unicode="&#xbf;" horiz-adv-x="938" 
d="M883 -196q-38 -31 -81 -58t-93 -47.5t-107.5 -32t-124.5 -11.5q-94 0 -169.5 24t-128.5 68.5t-81.5 108.5t-28.5 144q0 76 21 129t53 90t70.5 62t73 47t60 44.5t32.5 53.5l28 139h212l22 -160q7 -54 -11 -89.5t-49.5 -60.5t-70.5 -45.5t-73 -44.5t-57 -56.5t-23 -81.5
q0 -60 39.5 -95.5t108.5 -35.5q52 0 88 11t61.5 24.5t44.5 24.5t38 11q43 0 64 -37zM343 883q0 36 13.5 67t37 54t55.5 36.5t70 13.5q37 0 69 -13.5t56 -36.5t37.5 -54t13.5 -67t-13.5 -67.5t-37.5 -54.5t-56 -36t-69 -13q-38 0 -70 13t-55.5 36t-37 54.5t-13.5 67.5z" />
    <glyph glyph-name="perthousand" unicode="&#x2030;" horiz-adv-x="2414" 
d="M766 1104q0 -80 -29 -146t-77 -113.5t-111.5 -73.5t-132.5 -26q-76 0 -139.5 26t-110 73.5t-72.5 113.5t-26 146q0 83 26 150.5t72.5 115.5t110 74.5t139.5 26.5t140.5 -26.5t111 -74.5t72.5 -115.5t26 -150.5zM528 1104q0 51 -8.5 84.5t-23.5 53.5t-35.5 28t-44.5 8
t-44 -8t-34 -28t-22 -53.5t-8 -84.5q0 -48 8 -80t22 -51t34 -27t44 -8t44.5 8t35.5 27t23.5 51t8.5 80zM1224 1411q15 17 37 31.5t61 14.5h226l-1098 -1413q-15 -19 -37.5 -31.5t-54.5 -12.5h-232zM1604 342q0 -80 -29 -146.5t-77 -114t-111.5 -73.5t-132.5 -26
q-76 0 -139.5 26t-110 73.5t-72.5 114t-26 146.5q0 83 26 150.5t72.5 115.5t110 74.5t139.5 26.5t140.5 -26.5t111 -74.5t72.5 -115.5t26 -150.5zM1366 342q0 50 -8.5 83.5t-23.5 53.5t-35.5 28t-44.5 8t-44 -8t-34 -28t-22 -53.5t-8 -83.5q0 -48 8 -80t22 -51t34 -27t44 -8
t44.5 8t35.5 27t23.5 51t8.5 80zM2352 342q0 -80 -29 -146.5t-77 -114t-111.5 -73.5t-132.5 -26q-76 0 -139.5 26t-110 73.5t-72.5 114t-26 146.5q0 83 26 150.5t72.5 115.5t110 74.5t139.5 26.5t140.5 -26.5t111 -74.5t72.5 -115.5t26 -150.5zM2114 342q0 50 -8.5 83.5
t-23.5 53.5t-35.5 28t-44.5 8t-44 -8t-34 -28t-22 -53.5t-8 -83.5q0 -48 8 -80t22 -51t34 -27t44 -8t44.5 8t35.5 27t23.5 51t8.5 80z" />
    <glyph glyph-name="uniF8FF" unicode="&#xf8ff;" horiz-adv-x="1578" 
d="M636 1495q-85 -57 -150.5 -148.5t-113.5 -201.5t-80.5 -232t-51.5 -241.5t-27.5 -229.5t-8.5 -195t11 -144.5t30.5 -104.5t45.5 -79t57 -68l-12 -12q-59 55 -106 113t-80.5 127.5t-51.5 155.5t-18 198q0 154 35 308.5t104 296t172.5 262.5t240.5 207zM1080 791h-174v-342
q0 -38 25.5 -60t78.5 -22q9 0 25 0.5t33 3.5l20 -214q-50 -20 -107 -31t-119 -11q-96 0 -160 23t-103 68t-55 111t-16 152v300l-100 46v218l120 12l100 244h258v-252h174v-246zM942 -149q85 57 150.5 148t113.5 200.5t80 231.5t52 241t28 228t8 195t-11 146.5t-30.5 105.5
t-45.5 79.5t-57 68.5l12 12q59 -56 106.5 -114t80.5 -128t51 -156t18 -196q0 -154 -35 -308.5t-104 -296t-172.5 -262.5t-240.5 -207z" />
    <glyph glyph-name="uni000D" unicode="&#xd;" horiz-adv-x="0" 
 />
    <glyph glyph-name="Agrave" unicode="&#xc0;" horiz-adv-x="1422" 
d="M0 0zM1448 0h-262q-44 0 -71 20.5t-41 52.5l-86 254h-554l-86 -254q-11 -28 -39.5 -50.5t-70.5 -22.5h-264l564 1457h346zM512 557h398l-134 399q-15 38 -32 89.5t-34 111.5q-16 -61 -32.5 -113t-31.5 -90zM559 1867q23 0 40 -1.5t30.5 -6t25 -13.5t24.5 -25l209 -270
h-226q-18 0 -31 0.5t-24.5 3.5t-22 8.5t-22.5 16.5l-325 287h322z" />
    <glyph glyph-name="Aacute" unicode="&#xc1;" horiz-adv-x="1422" 
d="M0 0zM1448 0h-262q-44 0 -71 20.5t-41 52.5l-86 254h-554l-86 -254q-11 -28 -39.5 -50.5t-70.5 -22.5h-264l564 1457h346zM512 557h398l-134 399q-15 38 -32 89.5t-34 111.5q-16 -61 -32.5 -113t-31.5 -90zM1169 1867l-323 -285q-12 -11 -23 -17t-23 -9t-25.5 -4
t-30.5 -1h-226l189 270q12 16 23.5 25.5t25 14t31 5.5t40.5 1h342z" />
    <glyph glyph-name="Acircumflex" unicode="&#xc2;" horiz-adv-x="1422" 
d="M0 0zM1448 0h-262q-44 0 -71 20.5t-41 52.5l-86 254h-554l-86 -254q-11 -28 -39.5 -50.5t-70.5 -22.5h-264l564 1457h346zM512 557h398l-134 399q-15 38 -32 89.5t-34 111.5q-16 -61 -32.5 -113t-31.5 -90zM1100 1551h-224q-18 0 -44 6.5t-54 39.5l-50 78q-5 7 -9.5 13
t-8.5 12l-18 -25l-50 -78q-28 -33 -54 -39.5t-44 -6.5h-214l244 278h282z" />
    <glyph glyph-name="Atilde" unicode="&#xc3;" horiz-adv-x="1422" 
d="M0 0zM1448 0h-262q-44 0 -71 20.5t-41 52.5l-86 254h-554l-86 -254q-11 -28 -39.5 -50.5t-70.5 -22.5h-264l564 1457h346zM512 557h398l-134 399q-15 38 -32 89.5t-34 111.5q-16 -61 -32.5 -113t-31.5 -90zM834 1729q22 0 37 8.5t24.5 22t14 29t4.5 29.5h188
q0 -55 -15 -106t-44 -90.5t-72 -63t-99 -23.5t-95.5 15t-70 33.5t-55.5 33.5t-51 15q-22 0 -37 -9t-24 -22.5t-13 -29.5t-4 -30h-190q0 55 15 106t44.5 91t72 64t98.5 24t96 -15t70 -33.5t55 -33.5t51 -15z" />
    <glyph glyph-name="Adieresis" unicode="&#xc4;" horiz-adv-x="1422" 
d="M0 0zM1448 0h-262q-44 0 -71 20.5t-41 52.5l-86 254h-554l-86 -254q-11 -28 -39.5 -50.5t-70.5 -22.5h-264l564 1457h346zM512 557h398l-134 399q-15 38 -32 89.5t-34 111.5q-16 -61 -32.5 -113t-31.5 -90zM636 1668q0 -32 -12.5 -59t-34.5 -47.5t-51 -32t-62 -11.5
q-30 0 -57.5 11.5t-48.5 32t-33.5 47.5t-12.5 59q0 31 12.5 59t33.5 49t48.5 33t57.5 12q33 0 62 -12t51 -33t34.5 -49t12.5 -59zM1096 1668q0 -32 -12.5 -59t-33.5 -47.5t-49.5 -32t-60.5 -11.5t-60.5 11.5t-49.5 32t-33.5 47.5t-12.5 59q0 31 12.5 59t33.5 49t49.5 33
t60.5 12t60.5 -12t49.5 -33t33.5 -49t12.5 -59z" />
    <glyph glyph-name="Aring" unicode="&#xc5;" horiz-adv-x="1422" 
d="M0 0zM1448 0h-262q-44 0 -71 20.5t-41 52.5l-86 254h-554l-86 -254q-11 -28 -39.5 -50.5t-70.5 -22.5h-264l564 1457h346zM512 557h398l-134 399q-15 38 -32 89.5t-34 111.5q-16 -61 -32.5 -113t-31.5 -90zM487 1714q0 46 18.5 83.5t49 64t70.5 41t84 14.5q46 0 87 -14.5
t72.5 -41t50 -64t18.5 -83.5q0 -44 -18.5 -80.5t-50 -62.5t-72.5 -40t-87 -14q-44 0 -84 14t-70.5 40t-49 62.5t-18.5 80.5zM633 1714q0 -35 19.5 -57.5t60.5 -22.5q36 0 57 22.5t21 57.5q0 38 -21 60t-57 22q-41 0 -60.5 -22t-19.5 -60z" />
    <glyph glyph-name="Egrave" unicode="&#xc8;" horiz-adv-x="1146" 
d="M141 0zM1079 1457v-260h-598v-340h458v-250h-458v-347h598v-260h-938v1457h938zM476 1867q23 0 40 -1.5t30.5 -6t25 -13.5t24.5 -25l209 -270h-226q-18 0 -31 0.5t-24.5 3.5t-22 8.5t-22.5 16.5l-325 287h322z" />
    <glyph glyph-name="Eacute" unicode="&#xc9;" horiz-adv-x="1146" 
d="M141 0zM1079 1457v-260h-598v-340h458v-250h-458v-347h598v-260h-938v1457h938zM1086 1867l-323 -285q-12 -11 -23 -17t-23 -9t-25.5 -4t-30.5 -1h-226l189 270q12 16 23.5 25.5t25 14t31 5.5t40.5 1h342z" />
    <glyph glyph-name="Ecircumflex" unicode="&#xca;" horiz-adv-x="1146" 
d="M141 0zM1079 1457v-260h-598v-340h458v-250h-458v-347h598v-260h-938v1457h938zM1017 1551h-224q-18 0 -44 6.5t-54 39.5l-50 78q-5 7 -9.5 13t-8.5 12l-18 -25l-50 -78q-28 -33 -54 -39.5t-44 -6.5h-214l244 278h282z" />
    <glyph glyph-name="Edieresis" unicode="&#xcb;" horiz-adv-x="1146" 
d="M141 0zM1079 1457v-260h-598v-340h458v-250h-458v-347h598v-260h-938v1457h938zM553 1668q0 -32 -12.5 -59t-34.5 -47.5t-51 -32t-62 -11.5q-30 0 -57.5 11.5t-48.5 32t-33.5 47.5t-12.5 59q0 31 12.5 59t33.5 49t48.5 33t57.5 12q33 0 62 -12t51 -33t34.5 -49t12.5 -59z
M1013 1668q0 -32 -12.5 -59t-33.5 -47.5t-49.5 -32t-60.5 -11.5t-60.5 11.5t-49.5 32t-33.5 47.5t-12.5 59q0 31 12.5 59t33.5 49t49.5 33t60.5 12t60.5 -12t49.5 -33t33.5 -49t12.5 -59z" />
    <glyph glyph-name="Igrave" unicode="&#xcc;" horiz-adv-x="622" 
d="M0 0zM481 0h-340v1457h340v-1457zM164 1867q23 0 40 -1.5t30.5 -6t25 -13.5t24.5 -25l209 -270h-226q-18 0 -31 0.5t-24.5 3.5t-22 8.5t-22.5 16.5l-325 287h322z" />
    <glyph glyph-name="Iacute" unicode="&#xcd;" horiz-adv-x="622" 
d="M123 0zM481 0h-340v1457h340v-1457zM774 1867l-323 -285q-12 -11 -23 -17t-23 -9t-25.5 -4t-30.5 -1h-226l189 270q12 16 23.5 25.5t25 14t31 5.5t40.5 1h342z" />
    <glyph glyph-name="Icircumflex" unicode="&#xce;" horiz-adv-x="622" 
d="M0 0zM481 0h-340v1457h340v-1457zM705 1551h-224q-18 0 -44 6.5t-54 39.5l-50 78q-5 7 -9.5 13t-8.5 12l-18 -25l-50 -78q-28 -33 -54 -39.5t-44 -6.5h-214l244 278h282z" />
    <glyph glyph-name="Idieresis" unicode="&#xcf;" horiz-adv-x="622" 
d="M0 0zM481 0h-340v1457h340v-1457zM241 1668q0 -32 -12.5 -59t-34.5 -47.5t-51 -32t-62 -11.5q-30 0 -57.5 11.5t-48.5 32t-33.5 47.5t-12.5 59q0 31 12.5 59t33.5 49t48.5 33t57.5 12q33 0 62 -12t51 -33t34.5 -49t12.5 -59zM701 1668q0 -32 -12.5 -59t-33.5 -47.5
t-49.5 -32t-60.5 -11.5t-60.5 11.5t-49.5 32t-33.5 47.5t-12.5 59q0 31 12.5 59t33.5 49t49.5 33t60.5 12t60.5 -12t49.5 -33t33.5 -49t12.5 -59z" />
    <glyph glyph-name="Ntilde" unicode="&#xd1;" horiz-adv-x="1554" 
d="M319 1457q22 0 37 -2t27 -7.5t23 -15.5t25 -27l692 -875q-4 42 -6 81.5t-2 74.5v771h298v-1457h-176q-39 0 -65.5 12.5t-52.5 43.5l-687 868q3 -38 5 -74.5t2 -68.5v-781h-298v1457h178zM903 1729q22 0 37 8.5t24.5 22t14 29t4.5 29.5h188q0 -55 -15 -106t-44 -90.5
t-72 -63t-99 -23.5t-95.5 15t-70 33.5t-55.5 33.5t-51 15q-22 0 -37 -9t-24 -22.5t-13 -29.5t-4 -30h-190q0 55 15 106t44.5 91t72 64t98.5 24t96 -15t70 -33.5t55 -33.5t51 -15z" />
    <glyph glyph-name="Ograve" unicode="&#xd2;" horiz-adv-x="1629" 
d="M57 0zM1571 729q0 -158 -54.5 -294t-153.5 -236.5t-238.5 -157.5t-309.5 -57t-310 57t-239.5 157.5t-154 236.5t-54.5 294t54.5 294t154 236t239.5 157t310 57t309.5 -57.5t238.5 -157.5t153.5 -236t54.5 -293zM1225 729q0 108 -28 194.5t-80.5 146.5t-128.5 92t-173 32
q-98 0 -174.5 -32t-129 -92t-80.5 -146.5t-28 -194.5q0 -109 28 -195.5t80.5 -146.5t129 -91.5t174.5 -31.5q97 0 173 31.5t128.5 91.5t80.5 146.5t28 195.5zM666 1867q23 0 40 -1.5t30.5 -6t25 -13.5t24.5 -25l209 -270h-226q-18 0 -31 0.5t-24.5 3.5t-22 8.5t-22.5 16.5
l-325 287h322z" />
    <glyph glyph-name="Oacute" unicode="&#xd3;" horiz-adv-x="1629" 
d="M57 0zM1571 729q0 -158 -54.5 -294t-153.5 -236.5t-238.5 -157.5t-309.5 -57t-310 57t-239.5 157.5t-154 236.5t-54.5 294t54.5 294t154 236t239.5 157t310 57t309.5 -57.5t238.5 -157.5t153.5 -236t54.5 -293zM1225 729q0 108 -28 194.5t-80.5 146.5t-128.5 92t-173 32
q-98 0 -174.5 -32t-129 -92t-80.5 -146.5t-28 -194.5q0 -109 28 -195.5t80.5 -146.5t129 -91.5t174.5 -31.5q97 0 173 31.5t128.5 91.5t80.5 146.5t28 195.5zM1276 1867l-323 -285q-12 -11 -23 -17t-23 -9t-25.5 -4t-30.5 -1h-226l189 270q12 16 23.5 25.5t25 14t31 5.5
t40.5 1h342z" />
    <glyph glyph-name="Ocircumflex" unicode="&#xd4;" horiz-adv-x="1629" 
d="M57 0zM1571 729q0 -158 -54.5 -294t-153.5 -236.5t-238.5 -157.5t-309.5 -57t-310 57t-239.5 157.5t-154 236.5t-54.5 294t54.5 294t154 236t239.5 157t310 57t309.5 -57.5t238.5 -157.5t153.5 -236t54.5 -293zM1225 729q0 108 -28 194.5t-80.5 146.5t-128.5 92t-173 32
q-98 0 -174.5 -32t-129 -92t-80.5 -146.5t-28 -194.5q0 -109 28 -195.5t80.5 -146.5t129 -91.5t174.5 -31.5q97 0 173 31.5t128.5 91.5t80.5 146.5t28 195.5zM1207 1551h-224q-18 0 -44 6.5t-54 39.5l-50 78q-5 7 -9.5 13t-8.5 12l-18 -25l-50 -78q-28 -33 -54 -39.5
t-44 -6.5h-214l244 278h282z" />
    <glyph glyph-name="Otilde" unicode="&#xd5;" horiz-adv-x="1629" 
d="M57 0zM1571 729q0 -158 -54.5 -294t-153.5 -236.5t-238.5 -157.5t-309.5 -57t-310 57t-239.5 157.5t-154 236.5t-54.5 294t54.5 294t154 236t239.5 157t310 57t309.5 -57.5t238.5 -157.5t153.5 -236t54.5 -293zM1225 729q0 108 -28 194.5t-80.5 146.5t-128.5 92t-173 32
q-98 0 -174.5 -32t-129 -92t-80.5 -146.5t-28 -194.5q0 -109 28 -195.5t80.5 -146.5t129 -91.5t174.5 -31.5q97 0 173 31.5t128.5 91.5t80.5 146.5t28 195.5zM941 1729q22 0 37 8.5t24.5 22t14 29t4.5 29.5h188q0 -55 -15 -106t-44 -90.5t-72 -63t-99 -23.5t-95.5 15
t-70 33.5t-55.5 33.5t-51 15q-22 0 -37 -9t-24 -22.5t-13 -29.5t-4 -30h-190q0 55 15 106t44.5 91t72 64t98.5 24t96 -15t70 -33.5t55 -33.5t51 -15z" />
    <glyph glyph-name="Odieresis" unicode="&#xd6;" horiz-adv-x="1629" 
d="M57 0zM1571 729q0 -158 -54.5 -294t-153.5 -236.5t-238.5 -157.5t-309.5 -57t-310 57t-239.5 157.5t-154 236.5t-54.5 294t54.5 294t154 236t239.5 157t310 57t309.5 -57.5t238.5 -157.5t153.5 -236t54.5 -293zM1225 729q0 108 -28 194.5t-80.5 146.5t-128.5 92t-173 32
q-98 0 -174.5 -32t-129 -92t-80.5 -146.5t-28 -194.5q0 -109 28 -195.5t80.5 -146.5t129 -91.5t174.5 -31.5q97 0 173 31.5t128.5 91.5t80.5 146.5t28 195.5zM743 1668q0 -32 -12.5 -59t-34.5 -47.5t-51 -32t-62 -11.5q-30 0 -57.5 11.5t-48.5 32t-33.5 47.5t-12.5 59
q0 31 12.5 59t33.5 49t48.5 33t57.5 12q33 0 62 -12t51 -33t34.5 -49t12.5 -59zM1203 1668q0 -32 -12.5 -59t-33.5 -47.5t-49.5 -32t-60.5 -11.5t-60.5 11.5t-49.5 32t-33.5 47.5t-12.5 59q0 31 12.5 59t33.5 49t49.5 33t60.5 12t60.5 -12t49.5 -33t33.5 -49t12.5 -59z" />
    <glyph glyph-name="Ugrave" unicode="&#xd9;" horiz-adv-x="1498" 
d="M123 0zM749 267q68 0 121.5 22.5t90.5 64.5t56.5 102.5t19.5 137.5v863h338v-863q0 -134 -43.5 -246t-124.5 -193t-197 -126t-261 -45q-146 0 -262 45t-197 126t-124 193t-43 246v863h338v-862q0 -77 19.5 -137.5t56.5 -103t90.5 -65t121.5 -22.5zM598 1867q23 0 40 -1.5
t30.5 -6t25 -13.5t24.5 -25l209 -270h-226q-18 0 -31 0.5t-24.5 3.5t-22 8.5t-22.5 16.5l-325 287h322z" />
    <glyph glyph-name="Uacute" unicode="&#xda;" horiz-adv-x="1498" 
d="M123 0zM749 267q68 0 121.5 22.5t90.5 64.5t56.5 102.5t19.5 137.5v863h338v-863q0 -134 -43.5 -246t-124.5 -193t-197 -126t-261 -45q-146 0 -262 45t-197 126t-124 193t-43 246v863h338v-862q0 -77 19.5 -137.5t56.5 -103t90.5 -65t121.5 -22.5zM1208 1867l-323 -285
q-12 -11 -23 -17t-23 -9t-25.5 -4t-30.5 -1h-226l189 270q12 16 23.5 25.5t25 14t31 5.5t40.5 1h342z" />
    <glyph glyph-name="Ucircumflex" unicode="&#xdb;" horiz-adv-x="1498" 
d="M123 0zM749 267q68 0 121.5 22.5t90.5 64.5t56.5 102.5t19.5 137.5v863h338v-863q0 -134 -43.5 -246t-124.5 -193t-197 -126t-261 -45q-146 0 -262 45t-197 126t-124 193t-43 246v863h338v-862q0 -77 19.5 -137.5t56.5 -103t90.5 -65t121.5 -22.5zM1139 1551h-224
q-18 0 -44 6.5t-54 39.5l-50 78q-5 7 -9.5 13t-8.5 12l-18 -25l-50 -78q-28 -33 -54 -39.5t-44 -6.5h-214l244 278h282z" />
    <glyph glyph-name="Udieresis" unicode="&#xdc;" horiz-adv-x="1498" 
d="M123 0zM749 267q68 0 121.5 22.5t90.5 64.5t56.5 102.5t19.5 137.5v863h338v-863q0 -134 -43.5 -246t-124.5 -193t-197 -126t-261 -45q-146 0 -262 45t-197 126t-124 193t-43 246v863h338v-862q0 -77 19.5 -137.5t56.5 -103t90.5 -65t121.5 -22.5zM675 1668
q0 -32 -12.5 -59t-34.5 -47.5t-51 -32t-62 -11.5q-30 0 -57.5 11.5t-48.5 32t-33.5 47.5t-12.5 59q0 31 12.5 59t33.5 49t48.5 33t57.5 12q33 0 62 -12t51 -33t34.5 -49t12.5 -59zM1135 1668q0 -32 -12.5 -59t-33.5 -47.5t-49.5 -32t-60.5 -11.5t-60.5 11.5t-49.5 32
t-33.5 47.5t-12.5 59q0 31 12.5 59t33.5 49t49.5 33t60.5 12t60.5 -12t49.5 -33t33.5 -49t12.5 -59z" />
    <glyph glyph-name="Ydieresis" unicode="&#x178;" horiz-adv-x="1340" 
d="M0 0zM839 554v-554h-338v554l-528 903h298q44 0 69.5 -20.5t42.5 -52.5l206 -424q26 -50 46.5 -93.5t36.5 -85.5q15 43 35 86.5t46 92.5l204 424q7 13 17 26t23.5 23.5t31 17t38.5 6.5h300zM599 1668q0 -32 -12.5 -59t-34.5 -47.5t-51 -32t-62 -11.5q-30 0 -57.5 11.5
t-48.5 32t-33.5 47.5t-12.5 59q0 31 12.5 59t33.5 49t48.5 33t57.5 12q33 0 62 -12t51 -33t34.5 -49t12.5 -59zM1059 1668q0 -32 -12.5 -59t-33.5 -47.5t-49.5 -32t-60.5 -11.5t-60.5 11.5t-49.5 32t-33.5 47.5t-12.5 59q0 31 12.5 59t33.5 49t49.5 33t60.5 12t60.5 -12
t49.5 -33t33.5 -49t12.5 -59z" />
    <glyph glyph-name="agrave" unicode="&#xe0;" horiz-adv-x="1035" 
d="M34 0zM800 0q-44 0 -66.5 12t-37.5 50l-22 57q-39 -33 -75 -58t-74.5 -42.5t-82 -26t-96.5 -8.5q-71 0 -129 18.5t-98.5 54.5t-62.5 89.5t-22 123.5q0 55 28 113t97 105.5t186 79.5t295 36v44q0 91 -37.5 131.5t-106.5 40.5q-55 0 -90 -12t-62.5 -27t-53.5 -27t-62 -12
q-32 0 -54 16t-36 38l-56 97q94 83 208.5 123.5t245.5 40.5q94 0 169.5 -30.5t128 -85t80.5 -129.5t28 -164v-648h-142zM444 189q60 0 105 21t91 68v144q-93 -4 -153 -16t-95 -30t-48.5 -41t-13.5 -50q0 -53 29 -74.5t85 -21.5zM433 1473q47 0 70 -15.5t40 -44.5l136 -245
h-176q-35 0 -56 9.5t-44 32.5l-260 263h290z" />
    <glyph glyph-name="aacute" unicode="&#xe1;" horiz-adv-x="1035" 
d="M34 0zM800 0q-44 0 -66.5 12t-37.5 50l-22 57q-39 -33 -75 -58t-74.5 -42.5t-82 -26t-96.5 -8.5q-71 0 -129 18.5t-98.5 54.5t-62.5 89.5t-22 123.5q0 55 28 113t97 105.5t186 79.5t295 36v44q0 91 -37.5 131.5t-106.5 40.5q-55 0 -90 -12t-62.5 -27t-53.5 -27t-62 -12
q-32 0 -54 16t-36 38l-56 97q94 83 208.5 123.5t245.5 40.5q94 0 169.5 -30.5t128 -85t80.5 -129.5t28 -164v-648h-142zM444 189q60 0 105 21t91 68v144q-93 -4 -153 -16t-95 -30t-48.5 -41t-13.5 -50q0 -53 29 -74.5t85 -21.5zM907 1473l-260 -263q-23 -23 -44 -32.5
t-56 -9.5h-186l136 245q17 29 40 44.5t70 15.5h300z" />
    <glyph glyph-name="acircumflex" unicode="&#xe2;" horiz-adv-x="1035" 
d="M34 0zM800 0q-44 0 -66.5 12t-37.5 50l-22 57q-39 -33 -75 -58t-74.5 -42.5t-82 -26t-96.5 -8.5q-71 0 -129 18.5t-98.5 54.5t-62.5 89.5t-22 123.5q0 55 28 113t97 105.5t186 79.5t295 36v44q0 91 -37.5 131.5t-106.5 40.5q-55 0 -90 -12t-62.5 -27t-53.5 -27t-62 -12
q-32 0 -54 16t-36 38l-56 97q94 83 208.5 123.5t245.5 40.5q94 0 169.5 -30.5t128 -85t80.5 -129.5t28 -164v-648h-142zM444 189q60 0 105 21t91 68v144q-93 -4 -153 -16t-95 -30t-48.5 -41t-13.5 -50q0 -53 29 -74.5t85 -21.5zM891 1168h-206q-18 0 -35 5.5t-34 22.5
l-75 83l-12.5 12.5t-12.5 14.5q-6 -8 -12.5 -15t-12.5 -12l-77 -83q-15 -14 -33 -21t-36 -7h-214l234 289h292z" />
    <glyph glyph-name="atilde" unicode="&#xe3;" horiz-adv-x="1035" 
d="M34 0zM800 0q-44 0 -66.5 12t-37.5 50l-22 57q-39 -33 -75 -58t-74.5 -42.5t-82 -26t-96.5 -8.5q-71 0 -129 18.5t-98.5 54.5t-62.5 89.5t-22 123.5q0 55 28 113t97 105.5t186 79.5t295 36v44q0 91 -37.5 131.5t-106.5 40.5q-55 0 -90 -12t-62.5 -27t-53.5 -27t-62 -12
q-32 0 -54 16t-36 38l-56 97q94 83 208.5 123.5t245.5 40.5q94 0 169.5 -30.5t128 -85t80.5 -129.5t28 -164v-648h-142zM444 189q60 0 105 21t91 68v144q-93 -4 -153 -16t-95 -30t-48.5 -41t-13.5 -50q0 -53 29 -74.5t85 -21.5zM615 1387q24 0 39 12.5t15 53.5h188
q0 -63 -17.5 -113.5t-48.5 -86t-73 -54.5t-91 -19q-37 0 -69 11.5t-59.5 25.5t-50 25.5t-39.5 11.5q-24 0 -38 -13.5t-14 -54.5h-190q0 63 18 113.5t49 86.5t73 55.5t90 19.5q37 0 69.5 -11.5t59.5 -25.5t49.5 -25.5t39.5 -11.5z" />
    <glyph glyph-name="adieresis" unicode="&#xe4;" horiz-adv-x="1035" 
d="M34 0zM800 0q-44 0 -66.5 12t-37.5 50l-22 57q-39 -33 -75 -58t-74.5 -42.5t-82 -26t-96.5 -8.5q-71 0 -129 18.5t-98.5 54.5t-62.5 89.5t-22 123.5q0 55 28 113t97 105.5t186 79.5t295 36v44q0 91 -37.5 131.5t-106.5 40.5q-55 0 -90 -12t-62.5 -27t-53.5 -27t-62 -12
q-32 0 -54 16t-36 38l-56 97q94 83 208.5 123.5t245.5 40.5q94 0 169.5 -30.5t128 -85t80.5 -129.5t28 -164v-648h-142zM444 189q60 0 105 21t91 68v144q-93 -4 -153 -16t-95 -30t-48.5 -41t-13.5 -50q0 -53 29 -74.5t85 -21.5zM459 1295q0 -32 -13 -60t-35.5 -48.5
t-52 -32.5t-63.5 -12q-32 0 -60.5 12t-50 32.5t-34.5 48.5t-13 60q0 33 13 62t34.5 50.5t50 34t60.5 12.5q34 0 63.5 -12.5t52 -34t35.5 -50.5t13 -62zM885 1295q0 -32 -12.5 -60t-34.5 -48.5t-51.5 -32.5t-63.5 -12q-33 0 -62 12t-51 32.5t-34.5 48.5t-12.5 60
q0 33 12.5 62t34.5 50.5t51 34t62 12.5q34 0 63.5 -12.5t51.5 -34t34.5 -50.5t12.5 -62z" />
    <glyph glyph-name="aring" unicode="&#xe5;" horiz-adv-x="1035" 
d="M34 0zM800 0q-44 0 -66.5 12t-37.5 50l-22 57q-39 -33 -75 -58t-74.5 -42.5t-82 -26t-96.5 -8.5q-71 0 -129 18.5t-98.5 54.5t-62.5 89.5t-22 123.5q0 55 28 113t97 105.5t186 79.5t295 36v44q0 91 -37.5 131.5t-106.5 40.5q-55 0 -90 -12t-62.5 -27t-53.5 -27t-62 -12
q-32 0 -54 16t-36 38l-56 97q94 83 208.5 123.5t245.5 40.5q94 0 169.5 -30.5t128 -85t80.5 -129.5t28 -164v-648h-142zM444 189q60 0 105 21t91 68v144q-93 -4 -153 -16t-95 -30t-48.5 -41t-13.5 -50q0 -53 29 -74.5t85 -21.5zM269 1334q0 50 20 90.5t53 69.5t77 44.5
t92 15.5q49 0 94 -15.5t79.5 -44.5t54.5 -69.5t20 -90.5q0 -49 -20 -88.5t-54.5 -67.5t-79.5 -43.5t-94 -15.5q-48 0 -92 15.5t-77 43.5t-53 67.5t-20 88.5zM435 1334q0 -35 19.5 -57.5t60.5 -22.5q36 0 57 22.5t21 57.5q0 38 -21 60t-57 22q-41 0 -60.5 -22t-19.5 -60z" />
    <glyph glyph-name="egrave" unicode="&#xe8;" horiz-adv-x="1078" 
d="M50 0zM562 1053q103 0 188.5 -32t147 -93t96 -149.5t34.5 -200.5q0 -35 -3 -57t-11 -35t-21.5 -18t-34.5 -5h-598q15 -130 79 -188.5t165 -58.5q54 0 93 13t69.5 29t56 29t53.5 13q37 0 56 -27l90 -111q-48 -55 -103.5 -89.5t-114 -54t-117 -27t-111.5 -7.5
q-109 0 -204.5 35.5t-167 105.5t-113 174t-41.5 242q0 104 35.5 197t102 163t161 111t213.5 41zM568 839q-89 0 -139 -50.5t-66 -145.5h387q0 37 -9.5 72t-31 62.5t-56.5 44.5t-85 17zM492 1473q47 0 70 -15.5t40 -44.5l136 -245h-176q-35 0 -56 9.5t-44 32.5l-260 263h290z
" />
    <glyph glyph-name="eacute" unicode="&#xe9;" horiz-adv-x="1078" 
d="M50 0zM562 1053q103 0 188.5 -32t147 -93t96 -149.5t34.5 -200.5q0 -35 -3 -57t-11 -35t-21.5 -18t-34.5 -5h-598q15 -130 79 -188.5t165 -58.5q54 0 93 13t69.5 29t56 29t53.5 13q37 0 56 -27l90 -111q-48 -55 -103.5 -89.5t-114 -54t-117 -27t-111.5 -7.5
q-109 0 -204.5 35.5t-167 105.5t-113 174t-41.5 242q0 104 35.5 197t102 163t161 111t213.5 41zM568 839q-89 0 -139 -50.5t-66 -145.5h387q0 37 -9.5 72t-31 62.5t-56.5 44.5t-85 17zM966 1473l-260 -263q-23 -23 -44 -32.5t-56 -9.5h-186l136 245q17 29 40 44.5t70 15.5
h300z" />
    <glyph glyph-name="ecircumflex" unicode="&#xea;" horiz-adv-x="1078" 
d="M50 0zM562 1053q103 0 188.5 -32t147 -93t96 -149.5t34.5 -200.5q0 -35 -3 -57t-11 -35t-21.5 -18t-34.5 -5h-598q15 -130 79 -188.5t165 -58.5q54 0 93 13t69.5 29t56 29t53.5 13q37 0 56 -27l90 -111q-48 -55 -103.5 -89.5t-114 -54t-117 -27t-111.5 -7.5
q-109 0 -204.5 35.5t-167 105.5t-113 174t-41.5 242q0 104 35.5 197t102 163t161 111t213.5 41zM568 839q-89 0 -139 -50.5t-66 -145.5h387q0 37 -9.5 72t-31 62.5t-56.5 44.5t-85 17zM950 1168h-206q-18 0 -35 5.5t-34 22.5l-75 83l-12.5 12.5t-12.5 14.5q-6 -8 -12.5 -15
t-12.5 -12l-77 -83q-15 -14 -33 -21t-36 -7h-214l234 289h292z" />
    <glyph glyph-name="edieresis" unicode="&#xeb;" horiz-adv-x="1078" 
d="M50 0zM562 1053q103 0 188.5 -32t147 -93t96 -149.5t34.5 -200.5q0 -35 -3 -57t-11 -35t-21.5 -18t-34.5 -5h-598q15 -130 79 -188.5t165 -58.5q54 0 93 13t69.5 29t56 29t53.5 13q37 0 56 -27l90 -111q-48 -55 -103.5 -89.5t-114 -54t-117 -27t-111.5 -7.5
q-109 0 -204.5 35.5t-167 105.5t-113 174t-41.5 242q0 104 35.5 197t102 163t161 111t213.5 41zM568 839q-89 0 -139 -50.5t-66 -145.5h387q0 37 -9.5 72t-31 62.5t-56.5 44.5t-85 17zM518 1295q0 -32 -13 -60t-35.5 -48.5t-52 -32.5t-63.5 -12q-32 0 -60.5 12t-50 32.5
t-34.5 48.5t-13 60q0 33 13 62t34.5 50.5t50 34t60.5 12.5q34 0 63.5 -12.5t52 -34t35.5 -50.5t13 -62zM944 1295q0 -32 -12.5 -60t-34.5 -48.5t-51.5 -32.5t-63.5 -12q-33 0 -62 12t-51 32.5t-34.5 48.5t-12.5 60q0 33 12.5 62t34.5 50.5t51 34t62 12.5q34 0 63.5 -12.5
t51.5 -34t34.5 -50.5t12.5 -62z" />
    <glyph glyph-name="igrave" unicode="&#xec;" horiz-adv-x="534" 
d="M0 0zM422 1037v-1037h-310v1037h310zM198 1473q47 0 70 -15.5t40 -44.5l136 -245h-176q-35 0 -56 9.5t-44 32.5l-260 263h290z" />
    <glyph glyph-name="iacute" unicode="&#xed;" horiz-adv-x="535" 
d="M113 0zM423 1037v-1037h-310v1037h310zM673 1473l-260 -263q-23 -23 -44 -32.5t-56 -9.5h-186l136 245q17 29 40 44.5t70 15.5h300z" />
    <glyph glyph-name="icircumflex" unicode="&#xee;" horiz-adv-x="534" 
d="M0 0zM422 1037v-1037h-310v1037h310zM656 1168h-206q-18 0 -35 5.5t-34 22.5l-75 83l-12.5 12.5t-12.5 14.5q-6 -8 -12.5 -15t-12.5 -12l-77 -83q-15 -14 -33 -21t-36 -7h-214l234 289h292z" />
    <glyph glyph-name="idieresis" unicode="&#xef;" horiz-adv-x="534" 
d="M0 0zM422 1037v-1037h-310v1037h310zM254 1295q0 -32 -13 -60t-35.5 -48.5t-52 -32.5t-63.5 -12q-32 0 -60.5 12t-50 32.5t-34.5 48.5t-13 60q0 33 13 62t34.5 50.5t50 34t60.5 12.5q34 0 63.5 -12.5t52 -34t35.5 -50.5t13 -62zM620 1295q0 -32 -12.5 -60t-34.5 -48.5
t-51.5 -32.5t-63.5 -12q-33 0 -62 12t-51 32.5t-34.5 48.5t-12.5 60q0 33 12.5 62t34.5 50.5t51 34t62 12.5q34 0 63.5 -12.5t51.5 -34t34.5 -50.5t12.5 -62z" />
    <glyph glyph-name="ntilde" unicode="&#xf1;" horiz-adv-x="1140" 
d="M105 0zM105 0v1037h192q58 0 76 -52l18 -60q30 28 62 52t68.5 40.5t79 26t92.5 9.5q85 0 150.5 -29.5t110.5 -82t68 -125t23 -157.5v-659h-310v659q0 76 -35 118.5t-103 42.5q-51 0 -96 -22t-86 -59v-739h-310zM687 1387q24 0 39 12.5t15 53.5h188q0 -63 -17.5 -113.5
t-48.5 -86t-73 -54.5t-91 -19q-37 0 -69 11.5t-59.5 25.5t-50 25.5t-39.5 11.5q-24 0 -38 -13.5t-14 -54.5h-190q0 63 18 113.5t49 86.5t73 55.5t90 19.5q37 0 69.5 -11.5t59.5 -25.5t49.5 -25.5t39.5 -11.5z" />
    <glyph glyph-name="ograve" unicode="&#xf2;" horiz-adv-x="1162" 
d="M51 0zM583 1053q118 0 215 -37t166.5 -106t108 -167.5t38.5 -221.5q0 -124 -38.5 -223.5t-108 -169t-166.5 -107t-215 -37.5q-119 0 -216.5 37.5t-168 107t-109 169t-38.5 223.5q0 123 38.5 221.5t109 167.5t168 106t216.5 37zM583 214q107 0 157.5 75.5t50.5 229.5
t-50.5 229t-157.5 75q-110 0 -161 -75t-51 -229t51 -229.5t161 -75.5zM505 1473q47 0 70 -15.5t40 -44.5l136 -245h-176q-35 0 -56 9.5t-44 32.5l-260 263h290z" />
    <glyph glyph-name="oacute" unicode="&#xf3;" horiz-adv-x="1162" 
d="M51 0zM583 1053q118 0 215 -37t166.5 -106t108 -167.5t38.5 -221.5q0 -124 -38.5 -223.5t-108 -169t-166.5 -107t-215 -37.5q-119 0 -216.5 37.5t-168 107t-109 169t-38.5 223.5q0 123 38.5 221.5t109 167.5t168 106t216.5 37zM583 214q107 0 157.5 75.5t50.5 229.5
t-50.5 229t-157.5 75q-110 0 -161 -75t-51 -229t51 -229.5t161 -75.5zM979 1473l-260 -263q-23 -23 -44 -32.5t-56 -9.5h-186l136 245q17 29 40 44.5t70 15.5h300z" />
    <glyph glyph-name="ocircumflex" unicode="&#xf4;" horiz-adv-x="1162" 
d="M51 0zM583 1053q118 0 215 -37t166.5 -106t108 -167.5t38.5 -221.5q0 -124 -38.5 -223.5t-108 -169t-166.5 -107t-215 -37.5q-119 0 -216.5 37.5t-168 107t-109 169t-38.5 223.5q0 123 38.5 221.5t109 167.5t168 106t216.5 37zM583 214q107 0 157.5 75.5t50.5 229.5
t-50.5 229t-157.5 75q-110 0 -161 -75t-51 -229t51 -229.5t161 -75.5zM963 1168h-206q-18 0 -35 5.5t-34 22.5l-75 83l-12.5 12.5t-12.5 14.5q-6 -8 -12.5 -15t-12.5 -12l-77 -83q-15 -14 -33 -21t-36 -7h-214l234 289h292z" />
    <glyph glyph-name="otilde" unicode="&#xf5;" horiz-adv-x="1162" 
d="M51 0zM583 1053q118 0 215 -37t166.5 -106t108 -167.5t38.5 -221.5q0 -124 -38.5 -223.5t-108 -169t-166.5 -107t-215 -37.5q-119 0 -216.5 37.5t-168 107t-109 169t-38.5 223.5q0 123 38.5 221.5t109 167.5t168 106t216.5 37zM583 214q107 0 157.5 75.5t50.5 229.5
t-50.5 229t-157.5 75q-110 0 -161 -75t-51 -229t51 -229.5t161 -75.5zM687 1387q24 0 39 12.5t15 53.5h188q0 -63 -17.5 -113.5t-48.5 -86t-73 -54.5t-91 -19q-37 0 -69 11.5t-59.5 25.5t-50 25.5t-39.5 11.5q-24 0 -38 -13.5t-14 -54.5h-190q0 63 18 113.5t49 86.5t73 55.5
t90 19.5q37 0 69.5 -11.5t59.5 -25.5t49.5 -25.5t39.5 -11.5z" />
    <glyph glyph-name="odieresis" unicode="&#xf6;" horiz-adv-x="1162" 
d="M51 0zM583 1053q118 0 215 -37t166.5 -106t108 -167.5t38.5 -221.5q0 -124 -38.5 -223.5t-108 -169t-166.5 -107t-215 -37.5q-119 0 -216.5 37.5t-168 107t-109 169t-38.5 223.5q0 123 38.5 221.5t109 167.5t168 106t216.5 37zM583 214q107 0 157.5 75.5t50.5 229.5
t-50.5 229t-157.5 75q-110 0 -161 -75t-51 -229t51 -229.5t161 -75.5zM531 1295q0 -32 -13 -60t-35.5 -48.5t-52 -32.5t-63.5 -12q-32 0 -60.5 12t-50 32.5t-34.5 48.5t-13 60q0 33 13 62t34.5 50.5t50 34t60.5 12.5q34 0 63.5 -12.5t52 -34t35.5 -50.5t13 -62zM957 1295
q0 -32 -12.5 -60t-34.5 -48.5t-51.5 -32.5t-63.5 -12q-33 0 -62 12t-51 32.5t-34.5 48.5t-12.5 60q0 33 12.5 62t34.5 50.5t51 34t62 12.5q34 0 63.5 -12.5t51.5 -34t34.5 -50.5t12.5 -62z" />
    <glyph glyph-name="ugrave" unicode="&#xf9;" horiz-adv-x="1140" 
d="M95 0zM405 1037v-658q0 -77 35 -119t103 -42q51 0 95.5 21t86.5 59v739h310v-1037h-192q-58 0 -76 52l-19 60q-30 -29 -62 -52.5t-68.5 -40t-78.5 -26t-92 -9.5q-85 0 -150.5 29.5t-110.5 82.5t-68 125t-23 158v658h310zM492 1473q47 0 70 -15.5t40 -44.5l136 -245h-176
q-35 0 -56 9.5t-44 32.5l-260 263h290z" />
    <glyph glyph-name="uacute" unicode="&#xfa;" horiz-adv-x="1140" 
d="M95 0zM405 1037v-658q0 -77 35 -119t103 -42q51 0 95.5 21t86.5 59v739h310v-1037h-192q-58 0 -76 52l-19 60q-30 -29 -62 -52.5t-68.5 -40t-78.5 -26t-92 -9.5q-85 0 -150.5 29.5t-110.5 82.5t-68 125t-23 158v658h310zM966 1473l-260 -263q-23 -23 -44 -32.5t-56 -9.5
h-186l136 245q17 29 40 44.5t70 15.5h300z" />
    <glyph glyph-name="ucircumflex" unicode="&#xfb;" horiz-adv-x="1140" 
d="M95 0zM405 1037v-658q0 -77 35 -119t103 -42q51 0 95.5 21t86.5 59v739h310v-1037h-192q-58 0 -76 52l-19 60q-30 -29 -62 -52.5t-68.5 -40t-78.5 -26t-92 -9.5q-85 0 -150.5 29.5t-110.5 82.5t-68 125t-23 158v658h310zM950 1168h-206q-18 0 -35 5.5t-34 22.5l-75 83
l-12.5 12.5t-12.5 14.5q-6 -8 -12.5 -15t-12.5 -12l-77 -83q-15 -14 -33 -21t-36 -7h-214l234 289h292z" />
    <glyph glyph-name="udieresis" unicode="&#xfc;" horiz-adv-x="1140" 
d="M95 0zM405 1037v-658q0 -77 35 -119t103 -42q51 0 95.5 21t86.5 59v739h310v-1037h-192q-58 0 -76 52l-19 60q-30 -29 -62 -52.5t-68.5 -40t-78.5 -26t-92 -9.5q-85 0 -150.5 29.5t-110.5 82.5t-68 125t-23 158v658h310zM518 1295q0 -32 -13 -60t-35.5 -48.5t-52 -32.5
t-63.5 -12q-32 0 -60.5 12t-50 32.5t-34.5 48.5t-13 60q0 33 13 62t34.5 50.5t50 34t60.5 12.5q34 0 63.5 -12.5t52 -34t35.5 -50.5t13 -62zM944 1295q0 -32 -12.5 -60t-34.5 -48.5t-51.5 -32.5t-63.5 -12q-33 0 -62 12t-51 32.5t-34.5 48.5t-12.5 60q0 33 12.5 62
t34.5 50.5t51 34t62 12.5q34 0 63.5 -12.5t51.5 -34t34.5 -50.5t12.5 -62z" />
    <glyph glyph-name="ydieresis" unicode="&#xff;" horiz-adv-x="1076" 
d="M0 0zM536 -269q-14 -31 -34 -45.5t-64 -14.5h-232l200 420l-414 946h274q36 0 55.5 -16t28.5 -38l170 -447q24 -62 39 -124q10 32 21.5 63.5t23.5 62.5l154 445q9 23 32 38.5t50 15.5h250zM510 1295q0 -32 -13 -60t-35.5 -48.5t-52 -32.5t-63.5 -12q-32 0 -60.5 12
t-50 32.5t-34.5 48.5t-13 60q0 33 13 62t34.5 50.5t50 34t60.5 12.5q34 0 63.5 -12.5t52 -34t35.5 -50.5t13 -62zM936 1295q0 -32 -12.5 -60t-34.5 -48.5t-51.5 -32.5t-63.5 -12q-33 0 -62 12t-51 32.5t-34.5 48.5t-12.5 60q0 33 12.5 62t34.5 50.5t51 34t62 12.5
q34 0 63.5 -12.5t51.5 -34t34.5 -50.5t12.5 -62z" />
    <glyph glyph-name="Delta" unicode="&#x2206;" horiz-adv-x="1531" 
d="M61 93q0 42 9.5 90t29.5 97l496 1177h346l488 -1173q40 -95 40 -191v-93h-1409v93zM404 258h690l-268 698q-17 42 -35.5 99t-35.5 124q-17 -69 -35.5 -125.5t-35.5 -99.5z" />
    <glyph glyph-name="Omega" unicode="&#x2126;" horiz-adv-x="1665" 
d="M936 0v369q58 8 110 45.5t91.5 96.5t63 135t23.5 162q0 99 -30.5 171.5t-83.5 120.5t-124.5 71t-153.5 23q-81 0 -152.5 -23t-124.5 -71t-83.5 -120.5t-30.5 -171.5q0 -86 23.5 -162t63 -135t91.5 -96.5t110 -45.5v-369h-540q-51 0 -81.5 28.5t-30.5 73.5v166h178
q57 0 116 -5.5t116 -13.5q-86 33 -156.5 89t-120.5 129t-77.5 160.5t-27.5 184.5q0 138 55 259t152.5 210t231 140.5t289.5 51.5t289 -51.5t230.5 -140.5t152.5 -210t55 -259q0 -97 -27.5 -184.5t-77.5 -160.5t-120.5 -129t-156.5 -89q57 8 116 13.5t116 5.5h178v-166
q0 -45 -30.5 -73.5t-81.5 -28.5h-540z" />
    <glyph glyph-name="mu" unicode="&#xb5;" horiz-adv-x="1340" 
d="M460 1037v-601q0 -77 35 -124t103 -47t112.5 36.5t70.5 102.5v633h310v-712q0 -59 25.5 -87.5t71.5 -28.5h85v-119q0 -19 -13 -37t-37 -32.5t-58.5 -23t-77.5 -8.5q-42 0 -81.5 11.5t-73 35.5t-59.5 60.5t-42 86.5q-49 -78 -110.5 -119.5t-142.5 -41.5q-96 0 -161 44
q13 -45 18 -94t5 -92v-209h-154q-65 0 -100.5 32t-35.5 92v1242h310z" />
    <glyph glyph-name="Aogonek" unicode="&#x104;" horiz-adv-x="1419" 
d="M1396 -167q21 0 28 -19l46 -111q-35 -21 -87 -35.5t-111 -14.5q-107 0 -162.5 42t-55.5 107q0 51 33.5 102t108.5 96h-12q-44 0 -71 20.5t-41 52.5l-86 254h-554l-86 -254q-11 -28 -39.5 -50.5t-70.5 -22.5h-264l564 1457h346l564 -1457h-68q-39 -21 -66.5 -52.5
t-27.5 -69.5q0 -24 13.5 -38.5t40.5 -14.5q15 0 24 1t15 2.5t10 3t9 1.5zM510 557h398l-134 399q-15 38 -32 89.5t-34 111.5q-16 -61 -32.5 -113t-31.5 -90z" />
    <glyph glyph-name="Eth" unicode="&#xd0;" horiz-adv-x="1543" 
d="M-4 823h166v634h566q170 0 309.5 -55t238.5 -152t153.5 -230.5t54.5 -290.5q0 -158 -54.5 -291.5t-153.5 -231t-238.5 -152t-309.5 -54.5h-566v639h-166v184zM1138 729q0 108 -28 195t-80.5 147.5t-128.5 93t-173 32.5h-226v-374h244v-184h-244v-379h226q97 0 173 32.5
t128.5 93t80.5 147.5t28 196z" />
    <glyph glyph-name="Eogonek" unicode="&#x118;" horiz-adv-x="1146" 
d="M1005 -167q21 0 28 -19l46 -111q-35 -21 -87 -35.5t-111 -14.5q-107 0 -162.5 42t-55.5 107q0 51 33.5 102t108.5 96h-664v1457h938v-260h-598v-340h458v-250h-458v-347h598v-260h-92q-39 -21 -66.5 -52.5t-27.5 -69.5q0 -24 13.5 -38.5t40.5 -14.5q15 0 24 1t15 2.5
t10 3t9 1.5z" />
    <glyph glyph-name="Hbar" unicode="&#x126;" horiz-adv-x="1578" 
d="M1425 1224h140v-190h-140v-1034h-340v616h-592v-616h-340v1034h-140v190h140v233h340v-233h592v233h340v-233zM1085 848v186h-592v-186h592z" />
    <glyph glyph-name="Iogonek" unicode="&#x12e;" horiz-adv-x="622" 
d="M447 -167q21 0 28 -19l46 -111q-35 -21 -87 -35.5t-111 -14.5q-107 0 -162.5 42t-55.5 107q0 51 33.5 102t108.5 96h-106v1457h340v-1457h-52q-39 -21 -66.5 -52.5t-27.5 -69.5q0 -24 13.5 -38.5t40.5 -14.5q15 0 24 1t15 2.5t10 3t9 1.5z" />
    <glyph glyph-name="Lslash" unicode="&#x141;" horiz-adv-x="1085" 
d="M514 923l334 165v-222q0 -47 -40 -62l-294 -152v-382h540v-270h-878v505l-174 -85v228q0 39 36 54l138 71v684h338v-534z" />
    <glyph glyph-name="Lcaron" unicode="&#x13d;" horiz-adv-x="1050" 
d="M141 0zM479 270h540v-270h-878v1457h338v-1187zM873 1499q16 0 26 -4t14.5 -10.5t6 -13.5t1.5 -13q0 -8 -3.5 -23t-15 -44t-33 -77.5t-56.5 -124.5q-17 -33 -42 -42.5t-64 -9.5h-110l66 362h210z" />
    <glyph glyph-name="Eng" unicode="&#x14a;" horiz-adv-x="1554" 
d="M319 1457q22 0 37 -2t27 -7.5t23 -15.5t25 -27l692 -875q-4 42 -6 81.5t-2 74.5v771h298v-1392q0 -91 -21.5 -168t-69 -133.5t-124 -88t-185.5 -31.5q-29 0 -54.5 2.5t-49.5 7.5t-48 13.5t-51 19.5l34 131q10 35 27.5 46t39.5 11q9 0 16 -1.5t15 -3.5t18 -3.5t24 -1.5
q66 0 98 40t32 125v32l-682 862q3 -38 5 -74.5t2 -68.5v-781h-298v1457h178v0z" />
    <glyph glyph-name="Thorn" unicode="&#xde;" horiz-adv-x="1263" 
d="M479 252v-252h-338v1457h338v-235h176q154 0 264.5 -36.5t182 -100.5t105.5 -151t34 -188q0 -109 -35 -200t-107 -156t-182.5 -101.5t-261.5 -36.5h-176zM479 507h176q132 0 190 63t58 176q0 50 -15 91t-45.5 70.5t-77 45.5t-110.5 16h-176v-462z" />
    <glyph glyph-name="Scedilla" unicode="&#x15e;" horiz-adv-x="1108" 
d="M443 -220q15 0 29 -3.5t35 -3.5q26 0 37 9t11 20q0 22 -30.5 32t-103.5 21l45 132q-62 6 -123.5 21.5t-118.5 40t-107 57t-89 70.5l100 158q12 17 31.5 28.5t42.5 11.5q30 0 60.5 -19t69 -42t88.5 -42t118 -19q92 0 143 40.5t51 128.5q0 51 -28 83t-73.5 53t-103.5 37
t-119 35.5t-119 48t-103.5 75t-73.5 116t-28 171.5q0 82 33 160t97 139t157 97.5t213 36.5q67 0 130.5 -10.5t120.5 -31t106.5 -49t88.5 -64.5l-84 -157q-15 -24 -31.5 -36t-42.5 -12q-23 0 -49.5 14.5t-60 32.5t-76.5 32.5t-98 14.5q-95 0 -141.5 -40.5t-46.5 -109.5
q0 -44 28 -73t73.5 -50t104 -38.5t119.5 -39t119.5 -50.5t104 -74t73.5 -109.5t28 -155.5q0 -89 -27 -167.5t-78.5 -141t-127.5 -105.5t-173 -59l-11 -43q48 -12 79.5 -28.5t50 -36t26.5 -42.5t8 -48q0 -35 -19.5 -63t-54.5 -48t-84.5 -30.5t-109.5 -10.5q-41 0 -75.5 4
t-72.5 12l28 93q6 27 34 27z" />
    <glyph glyph-name="Tbar" unicode="&#x166;" horiz-adv-x="1238" 
d="M1198 1457v-268h-410v-335h300v-184h-300v-670h-338v670h-300v184h300v335h-410v268h1158z" />
    <glyph glyph-name="Uogonek" unicode="&#x172;" horiz-adv-x="1498" 
d="M911 -167q21 0 28 -19l46 -111q-35 -21 -87 -35.5t-111 -14.5q-107 0 -162.5 42t-55.5 107q0 48 28.5 95t91.5 89q-132 9 -237 57.5t-178 128.5t-112 187.5t-39 234.5v863h338v-862q0 -77 19.5 -137.5t56.5 -103t90.5 -65t121.5 -22.5t121.5 22.5t90.5 64.5t56.5 102.5
t19.5 137.5v863h338v-863q0 -118 -33.5 -219t-97 -179t-154.5 -130t-206 -71q-36 -21 -60.5 -51t-24.5 -66q0 -24 13.5 -38.5t40.5 -14.5q15 0 24 1t15 2.5t10 3t9 1.5z" />
    <glyph glyph-name="aogonek" unicode="&#x105;" horiz-adv-x="1035" 
d="M960 -167q21 0 28 -19l46 -111q-35 -21 -87 -35.5t-111 -14.5q-107 0 -162.5 42t-55.5 107q0 52 35 103.5t111 96.5q-26 4 -41.5 17.5t-26.5 42.5l-22 57q-39 -33 -75 -58t-74.5 -42.5t-82 -26t-96.5 -8.5q-71 0 -129 18.5t-98.5 54.5t-62.5 89.5t-22 123.5q0 55 28 113
t97 105.5t186 79.5t295 36v44q0 91 -37.5 131.5t-106.5 40.5q-55 0 -90 -12t-62.5 -27t-53.5 -27t-62 -12q-32 0 -54 16t-36 38l-56 97q94 83 208.5 123.5t245.5 40.5q94 0 169.5 -30.5t128 -85t80.5 -129.5t28 -164v-648q-39 -21 -66.5 -52.5t-27.5 -69.5q0 -24 13.5 -38.5
t40.5 -14.5q15 0 24 1t15 2.5t10 3t9 1.5zM444 189q60 0 105 21t91 68v144q-93 -4 -153 -16t-95 -30t-48.5 -41t-13.5 -50q0 -53 29 -74.5t85 -21.5z" />
    <glyph glyph-name="_238" horiz-adv-x="2133" 
d="M867 791q-14 -17 -27 -27t-37 -10q-23 0 -41.5 11t-41.5 24.5t-54 24.5t-77 11q-57 0 -98.5 -21t-68.5 -60t-40 -95.5t-13 -127.5q0 -149 57.5 -229t158.5 -80q54 0 85.5 13.5t53.5 30t40.5 30.5t46.5 14q37 0 56 -27l90 -111q-48 -55 -101 -89.5t-108.5 -54t-111.5 -27
t-109 -7.5q-95 0 -181.5 36t-152 104.5t-104 168.5t-38.5 228q0 112 33.5 209.5t99 169t162 112.5t223.5 41q19 0 37 -1t35 -3q-30 76 -30 162q0 77 28.5 142.5t82.5 113.5t132.5 75t179.5 27q68 0 121 -11.5t96.5 -25t80.5 -24.5t75 -11v-551q56 48 121.5 77.5t156.5 29.5
q85 0 150.5 -29.5t110.5 -82t68 -125t23 -157.5v-659h-310v659q0 76 -35 118.5t-103 42.5q-51 0 -96 -22t-86 -59v-739h-310v1352q0 17 -12.5 30t-32.5 21.5t-45 12.5t-50 4q-49 0 -87 -15t-63.5 -42t-38.5 -64.5t-13 -82.5q0 -63 24 -122.5t65 -110.5q29 -17 54.5 -37.5
t50.5 -45.5z" />
    <glyph glyph-name="_239" horiz-adv-x="2109" 
d="M867 791q-14 -17 -27 -27t-37 -10q-23 0 -41.5 11t-41.5 24.5t-54 24.5t-77 11q-57 0 -98.5 -21t-68.5 -60t-40 -95.5t-13 -127.5q0 -149 57.5 -229t158.5 -80q54 0 85.5 13.5t53.5 30t40.5 30.5t46.5 14q37 0 56 -27l90 -111q-48 -55 -101 -89.5t-108.5 -54t-111.5 -27
t-109 -7.5q-95 0 -181.5 36t-152 104.5t-104 168.5t-38.5 228q0 112 33.5 209.5t99 169t162 112.5t223.5 41q19 0 37 -1t35 -3q-30 76 -30 162q0 77 28.5 142.5t82.5 113.5t132.5 75t179.5 27q68 0 121 -11.5t96.5 -25t80.5 -24.5t75 -11v-839h46q29 0 44 8.5t30 28.5
l196 292q18 25 41 37.5t59 12.5h284l-268 -369q-38 -50 -90 -82q23 -17 42 -39.5t36 -50.5l292 -496h-280q-35 0 -60 11.5t-42 40.5l-196 367q-14 25 -29 32.5t-45 7.5h-60v-459h-310v1355q-2 16 -15 28.5t-32.5 20.5t-44 12t-48.5 4q-49 0 -87 -15t-63.5 -42t-38.5 -64.5
t-13 -82.5q0 -63 24 -122.5t65 -110.5q29 -17 54.5 -37.5t50.5 -45.5z" />
    <glyph glyph-name="_240" horiz-adv-x="1739" 
d="M1453 1035h257v-212h-257v-515q0 -36 17.5 -59.5t50.5 -23.5q17 0 28.5 3.5t20 8t16 8t17.5 3.5q14 0 22.5 -6.5t17.5 -20.5l94 -147q-60 -45 -135 -67.5t-155 -22.5q-74 0 -130.5 21.5t-95 61t-58.5 95.5t-20 125v536h-88q-24 0 -41 15.5t-17 45.5v121l185 36
q12 27 23 58t19.5 61.5t13.5 60t5 55.5q0 33 -7.5 64.5t-28.5 55.5t-57.5 39t-94.5 15q-67 0 -119 -21.5t-88 -58t-54.5 -84.5t-18.5 -100t17.5 -104.5t54.5 -100.5q28 -17 53 -37t49 -44l-82 -109q-14 -17 -27 -27t-37 -10q-23 0 -41.5 11t-41.5 24.5t-54 24.5t-77 11
q-57 0 -98.5 -21t-68.5 -60t-40 -95.5t-13 -127.5q0 -149 57.5 -229t158.5 -80q54 0 85.5 13.5t53.5 30t40.5 30.5t46.5 14q37 0 56 -27l90 -111q-48 -55 -101 -89.5t-108.5 -54t-111.5 -27t-109 -7.5q-95 0 -181.5 36t-152 104.5t-104 168.5t-38.5 228q0 112 33.5 209.5
t99 169t162 112.5t223.5 41q22 0 42.5 -1.5t40.5 -3.5q-21 66 -21 136q0 73 25.5 142.5t78 123.5t132.5 86.5t188 32.5t183.5 -30t123.5 -79t69.5 -111.5t21.5 -126.5v-187z" />
    <glyph glyph-name="_241" horiz-adv-x="1741" 
d="M1453 1035h257v-212h-257v-515q0 -36 17.5 -59.5t50.5 -23.5q17 0 28.5 3.5t20 8t16 8t17.5 3.5q14 0 22.5 -6.5t17.5 -20.5l94 -147q-60 -45 -135 -67.5t-155 -22.5q-74 0 -130.5 21.5t-95 61t-58.5 95.5t-20 125v536h-88q-24 0 -41 15.5t-17 45.5v121l185 36
q12 27 23 58t19.5 61.5t13.5 60t5 55.5q0 33 -7.5 64.5t-28.5 55.5t-57.5 39t-94.5 15q-67 0 -119 -21.5t-88 -58t-54.5 -84.5t-18.5 -100t17.5 -104.5t54.5 -100.5q28 -17 53 -37t49 -44l-82 -109q-14 -17 -27 -27t-37 -10q-23 0 -41.5 11t-41.5 24.5t-54 24.5t-77 11
q-57 0 -98.5 -21t-68.5 -60t-40 -95.5t-13 -127.5q0 -149 57.5 -229t158.5 -80q54 0 85.5 13.5t53.5 30t40.5 30.5t46.5 14q37 0 56 -27l90 -111q-38 -44 -79.5 -74.5t-85 -50.5t-88 -31.5t-88.5 -16.5l-11 -38q48 -12 79.5 -28.5t50.5 -36t27 -42.5t8 -48q0 -35 -19.5 -63
t-54.5 -48t-84.5 -30.5t-109.5 -10.5q-41 0 -75.5 4t-72.5 12l28 93q6 27 34 27q15 0 29 -3.5t35 -3.5q26 0 37 9t11 20q0 22 -30.5 32t-103.5 21l47 137q-81 15 -152 57t-124 109t-83.5 158.5t-30.5 204.5q0 112 33.5 209.5t99 169t162 112.5t223.5 41q22 0 42.5 -1.5
t40.5 -3.5q-21 66 -21 136q0 73 25.5 142.5t78 123.5t132.5 86.5t188 32.5t183.5 -30t123.5 -79t69.5 -111.5t21.5 -126.5v-187z" />
    <glyph glyph-name="dcaron" unicode="&#x10f;" horiz-adv-x="1148" 
d="M54 0zM852 0q-58 0 -76 52l-24 79q-31 -33 -65 -60t-73.5 -46.5t-85 -30t-98.5 -10.5q-81 0 -150 36t-119 104t-78.5 166.5t-28.5 224.5q0 116 32 215.5t90.5 172t140.5 113.5t181 41q80 0 135.5 -23.5t100.5 -61.5v525h310v-1497h-192zM538 222q34 0 61.5 6.5t50.5 18.5
t43.5 30t40.5 42v440q-36 39 -76.5 54.5t-85.5 15.5q-43 0 -79 -17t-62.5 -54.5t-41.5 -97.5t-15 -145q0 -82 12 -138t33.5 -90.5t51.5 -49.5t67 -15zM1374 1499q16 0 26 -4t14.5 -10.5t6 -13.5t1.5 -13q0 -8 -3.5 -23t-15 -44t-33 -77.5t-56.5 -124.5q-17 -33 -42 -42.5
t-64 -9.5h-110l66 362h210z" />
    <glyph glyph-name="dcroat" unicode="&#x111;" horiz-adv-x="1150" 
d="M518 1306h218v191h310v-191h140v-184h-140v-1122h-192q-58 0 -76 52l-24 79q-31 -33 -65 -60t-73.5 -46.5t-85 -30t-98.5 -10.5q-81 0 -150 33t-119 97.5t-78.5 160t-28.5 221.5q0 116 32 212.5t90.5 165.5t140.5 107t181 38q80 0 135.5 -23.5t100.5 -61.5v188h-218v184z
M540 222q34 0 61.5 6.5t50.5 18.5t43.5 30t40.5 42v402q-36 38 -76.5 54t-85.5 16q-43 0 -79 -14t-62.5 -48t-41.5 -91t-15 -142q0 -82 12 -135t33.5 -84t51.5 -43t67 -12z" />
    <glyph glyph-name="eth" unicode="&#xf0;" horiz-adv-x="1149" 
d="M349 1059q-18 29 -10 54.5t38 41.5l46 22q-20 7 -40 13.5t-42 12.5q-20 6 -36.5 17.5t-25.5 28.5t-9 40.5t11 53.5l36 103q106 -17 203 -49t182 -81l183 107l62 -98q17 -26 9.5 -51t-33.5 -39l-66 -33q109 -103 171.5 -249.5t62.5 -341.5q0 -150 -35.5 -266.5t-104 -197
t-168.5 -122t-228 -41.5q-109 0 -202 33.5t-161 97.5t-106.5 156t-38.5 209q0 90 33.5 172.5t95 145.5t147.5 100t190 37q90 0 160.5 -28t127.5 -79q-20 82 -63 145t-119 114l-212 -124zM563 212q45 0 86 16.5t73.5 56t52.5 107t23 169.5q-29 63 -82.5 104.5t-138.5 41.5
q-54 0 -95.5 -18t-69.5 -49t-42.5 -72.5t-14.5 -89.5q0 -65 16 -115t44 -83.5t66 -50.5t82 -17z" />
    <glyph glyph-name="eogonek" unicode="&#x119;" horiz-adv-x="1078" 
d="M734 -167q21 0 28 -19l46 -111q-35 -21 -87 -35.5t-111 -14.5q-107 0 -162.5 42t-55.5 107q0 48 29 95.5t92 89.5q-98 9 -182.5 49t-147 109.5t-98 168.5t-35.5 227q0 104 35.5 197t102 163t161 111t213.5 41q103 0 188.5 -32t147 -93t96 -149.5t34.5 -200.5
q0 -35 -3 -57t-11 -35t-21.5 -18t-34.5 -5h-598q15 -130 79 -188.5t165 -58.5q54 0 93 13t69.5 29t56 29t53.5 13q37 0 56 -27l90 -111q-34 -39 -72.5 -67.5t-79 -48.5t-82.5 -32.5t-83 -19.5q-35 -21 -59 -50.5t-24 -65.5q0 -24 13.5 -38.5t40.5 -14.5q15 0 24 1t15 2.5
t10 3t9 1.5zM568 839q-89 0 -139 -50.5t-66 -145.5h387q0 37 -9.5 72t-31 62.5t-56.5 44.5t-85 17z" />
    <glyph glyph-name="_275" horiz-adv-x="1148" 
d="M1044 1037v-945q0 -96 -38 -178t-108.5 -141t-171.5 -92.5t-227 -33.5q-72 0 -132 10.5t-109.5 28.5t-88.5 42t-69 51l72 115q12 20 30.5 31t47.5 11q27 0 48 -11.5t46 -26t59 -26t87 -11.5q61 0 107 17.5t76.5 47.5t45.5 69t15 82v46q-29 -29 -57 -49.5t-59 -34
t-66.5 -19.5t-79.5 -6q-97 0 -174.5 37t-131.5 105t-83 164t-29 214q0 109 32 204.5t90.5 166t140.5 111t181 40.5q47 0 85 -8t69.5 -23t58.5 -35.5t52 -45.5l13 41q18 52 76 52h192zM557 251q56 0 96.5 25t80.5 72v411q-36 38 -76.5 54t-85.5 16q-43 0 -79 -16.5
t-62.5 -52.5t-41.5 -92t-15 -134q0 -150 47.5 -216.5t135.5 -66.5z" />
    <glyph glyph-name="hcircumflex" unicode="&#x125;" horiz-adv-x="1140" 
d="M0 0zM105 0v1497h310v-551q56 48 121.5 77.5t156.5 29.5q85 0 150.5 -29.5t110.5 -82t68 -125t23 -157.5v-659h-310v659q0 76 -35 118.5t-103 42.5q-51 0 -96 -22t-86 -59v-739h-310zM643 1551h-224q-18 0 -44 6.5t-54 39.5l-50 78q-5 7 -9.5 13t-8.5 12l-18 -25l-50 -78
q-28 -33 -54 -39.5t-44 -6.5h-214l244 278h282z" />
    <glyph glyph-name="hbar" unicode="&#x127;" horiz-adv-x="1140" 
d="M-30 1308h134v189h310v-189h270v-184h-270v-216q56 48 121.5 77.5t156.5 29.5q85 0 150.5 -29.5t110.5 -82t68 -125t23 -158.5v-620h-310v620q0 77 -35 119t-103 42q-51 0 -96 -21.5t-86 -58.5v-701h-310v1124h-134v184z" />
    <glyph glyph-name="iogonek" unicode="&#x12f;" horiz-adv-x="534" 
d="M70 0zM422 1037v-1037h-310v1037h310zM454 1321q0 -37 -15 -69.5t-41 -57t-60.5 -39t-73.5 -14.5q-38 0 -71 14.5t-58.5 39t-40 57t-14.5 69.5q0 38 14.5 71t40 58t58.5 39t71 14q39 0 73.5 -14t60.5 -39t41 -58t15 -71zM412 -167q21 0 28 -19l46 -111q-35 -21 -87 -35.5
t-111 -14.5q-107 0 -162.5 42t-55.5 107q0 55 39 109.5t125 100.5l160 -12q-39 -21 -66.5 -52.5t-27.5 -69.5q0 -24 13.5 -38.5t40.5 -14.5q15 0 24 1t15 2.5t10 3t9 1.5z" />
    <glyph glyph-name="_279" horiz-adv-x="1089" 
d="M405 1037v-658q0 -77 40 -119t108 -42q47 0 73 12.5t49 45.5v761h310v-994q0 -85 -23 -157.5t-73.5 -126t-131 -84t-196.5 -30.5q-38 0 -75.5 4.5t-72.5 13.5l20 163q2 21 14 31t48 10q44 0 78 8t56.5 28t34 54t11.5 86v28q-45 -42 -95.5 -63.5t-124.5 -21.5
q-88 0 -155 29.5t-112.5 81.5t-69 124t-23.5 158v658h310zM1024 1321q0 -37 -15 -69.5t-41 -57t-60.5 -39t-73.5 -14.5q-38 0 -71 14.5t-58.5 39t-40 57t-14.5 69.5q0 38 14.5 71t40 58t58.5 39t71 14q39 0 73.5 -14t60.5 -39t41 -58t15 -71zM447 1321q0 -37 -15 -69.5
t-41 -57t-60.5 -39t-73.5 -14.5q-38 0 -71 14.5t-58.5 39t-40 57t-14.5 69.5q0 38 14.5 71t40 58t58.5 39t71 14q39 0 73.5 -14t60.5 -39t41 -58t15 -71z" />
    <glyph glyph-name="uni0237" unicode="&#x237;" horiz-adv-x="536" 
d="M423 1037v-1039q0 -73 -18.5 -137.5t-61 -113t-112 -76.5t-172.5 -28q-38 0 -70.5 4.5t-67.5 13.5l10 163q2 21 14 31t48 10t59 6t36.5 21t19 40.5t5.5 65.5v1039h310z" />
    <glyph glyph-name="kgreenlandic" unicode="&#x138;" horiz-adv-x="1117" 
d="M415 1037v-379h46q29 0 44 8.5t30 28.5l196 292q18 25 41 37.5t59 12.5h284l-268 -369q-38 -50 -90 -82q23 -17 42 -39.5t36 -50.5l292 -496h-280q-35 0 -60 11.5t-42 40.5l-196 367q-14 25 -29 32.5t-45 7.5h-60v-459h-310v1037h310z" />
    <glyph glyph-name="lslash" unicode="&#x142;" horiz-adv-x="698" 
d="M501 1497v-510l169 65v-174q0 -47 -40 -62l-129 -52v-764h-310v660l-156 -61v179q0 40 36 55l120 49v615h310z" />
    <glyph glyph-name="lcaron" unicode="&#x13e;" horiz-adv-x="519" 
d="M105 0zM415 1497v-1497h-310v1497h310zM767 1499q16 0 26 -4t14.5 -10.5t6 -13.5t1.5 -13q0 -8 -3.5 -23t-15 -44t-33 -77.5t-56.5 -124.5q-17 -33 -42 -42.5t-64 -9.5h-110l66 362h210z" />
    <glyph glyph-name="eng" unicode="&#x14b;" horiz-adv-x="1140" 
d="M105 0v1037h192q58 0 76 -52l18 -60q30 28 62 52t68.5 40.5t79 26t92.5 9.5q85 0 150.5 -29.5t110.5 -82t68 -125t23 -157.5v-594q0 -91 -23 -168.5t-73 -133.5t-128 -88t-187 -32q-29 0 -54.5 2.5t-49.5 7.5t-48 13.5t-51 19.5l34 131q10 35 27.5 46t39.5 11
q9 0 16 -1.5t15 -3.5t18 -3.5t24 -1.5q66 0 98 40t32 125v630q0 76 -35 118.5t-103 42.5q-51 0 -96 -22t-86 -59v-739h-310z" />
    <glyph glyph-name="thorn" unicode="&#xfe;" horiz-adv-x="1150" 
d="M105 -329v1826h310v-570q58 57 131.5 91.5t172.5 34.5q81 0 150 -35t119 -102.5t78.5 -165.5t28.5 -223q0 -117 -32.5 -216t-91 -172t-140 -114t-180.5 -41q-41 0 -75 7.5t-62.5 21t-52.5 32.5t-46 42v-416h-310zM611 820q-34 0 -61.5 -6.5t-51 -18.5t-43.5 -30.5
t-40 -42.5v-440q35 -39 76 -54.5t86 -15.5q43 0 79 17t62.5 54.5t41.5 97.5t15 146q0 82 -12 138t-33.5 90.5t-51.5 49.5t-67 15z" />
    <glyph glyph-name="scedilla" unicode="&#x15f;" horiz-adv-x="891" 
d="M309 -220q15 0 29 -3.5t35 -3.5q26 0 37 9t11 20q0 22 -30.5 32t-103.5 21l46 134q-44 5 -87.5 16.5t-82.5 27.5t-72.5 36t-58.5 43l72 114q12 20 30.5 31.5t47.5 11.5q27 0 48.5 -12t46.5 -26t58.5 -26t84.5 -12q36 0 61 7.5t40 20.5t22 29t7 33q0 31 -21 51t-55 34.5
t-77.5 27t-88.5 28.5t-88.5 38.5t-77.5 57t-55 84.5t-21 121q0 66 25.5 125.5t76.5 104.5t128 71.5t180 26.5q56 0 108.5 -10t98.5 -28t84 -42.5t67 -53.5l-70 -109q-12 -19 -25.5 -27t-34.5 -8q-22 0 -44 9.5t-47.5 20.5t-57.5 20.5t-73 9.5q-59 0 -90.5 -22.5t-31.5 -62.5
q0 -29 20.5 -48t54.5 -33.5t77 -27.5t88 -29t88 -37.5t77 -53t54.5 -76.5t20.5 -108q0 -67 -21.5 -125t-63 -103t-103.5 -75t-143 -42l-11 -41q48 -12 79.5 -28.5t50.5 -36t27 -42.5t8 -48q0 -35 -19.5 -63t-54.5 -48t-84.5 -30.5t-109.5 -10.5q-41 0 -75.5 4t-72.5 12
l28 93q6 27 34 27z" />
    <glyph glyph-name="_287" horiz-adv-x="1668" 
d="M764 810q-12 -19 -25.5 -27t-34.5 -8q-22 0 -44 9.5t-47.5 20.5t-57.5 20.5t-73 9.5q-59 0 -90.5 -22.5t-31.5 -62.5q0 -29 20.5 -48t54.5 -33.5t77 -27.5t88 -29t88 -37.5t77 -53t54.5 -76.5t20.5 -108q0 -77 -28 -142t-83.5 -112t-137 -73t-187.5 -26q-53 0 -106 10
t-102.5 27t-91.5 40.5t-72 50.5l72 114q12 20 30.5 31.5t47.5 11.5q27 0 48.5 -12t46.5 -26t58.5 -26t84.5 -12q36 0 61 7.5t40 20.5t22 29t7 33q0 31 -21 51t-55 34.5t-77.5 27t-88.5 28.5t-88.5 38.5t-77.5 57t-55 84.5t-21 121q0 66 25.5 125.5t76.5 104.5t128 71.5
t180 26.5q27 0 53.5 -2.5t52.5 -7.5q-22 67 -22 140q0 76 23 146t72.5 123.5t128 85t190.5 31.5q108 0 185 -30t126.5 -79.5t73 -112t23.5 -126.5v-186h257v-212h-257v-515q0 -36 17.5 -59.5t50.5 -23.5q17 0 28.5 3.5t20 8t16 8t17.5 3.5q14 0 22.5 -6.5t17.5 -20.5
l94 -147q-60 -45 -135 -67.5t-155 -22.5q-74 0 -130.5 21.5t-95 61t-58.5 95.5t-20 125v536h-88q-24 0 -41 15.5t-17 45.5v121l185 36q12 27 23 58t19.5 61.5t13.5 60t5 55.5q0 33 -9.5 64.5t-32 55.5t-60.5 39t-96 15q-69 0 -120 -20.5t-84.5 -56t-49.5 -84t-16 -104.5
q0 -63 26.5 -127t81.5 -120q12 -9 22 -19z" />
    <glyph glyph-name="_288" horiz-adv-x="1670" 
d="M309 -220q15 0 29 -3.5t35 -3.5q26 0 37 9t11 20q0 22 -30.5 32t-103.5 21l46 134q-44 5 -87.5 16.5t-82.5 27.5t-72.5 36t-58.5 43l72 114q12 20 30.5 31.5t47.5 11.5q27 0 48.5 -12t46.5 -26t58.5 -26t84.5 -12q36 0 61 7.5t40 20.5t22 29t7 33q0 31 -21 51t-55 34.5
t-77.5 27t-88.5 28.5t-88.5 38.5t-77.5 57t-55 84.5t-21 121q0 66 25.5 125.5t76.5 104.5t128 71.5t180 26.5q27 0 53.5 -2.5t52.5 -7.5q-22 67 -22 140q0 76 23 146t72.5 123.5t128 85t190.5 31.5q108 0 185 -30t126.5 -79.5t73 -112t23.5 -126.5v-186h257v-212h-257v-515
q0 -36 17.5 -59.5t50.5 -23.5q17 0 28.5 3.5t20 8t16 8t17.5 3.5q14 0 22.5 -6.5t17.5 -20.5l94 -147q-60 -45 -135 -67.5t-155 -22.5q-74 0 -130.5 21.5t-95 61t-58.5 95.5t-20 125v536h-88q-24 0 -41 15.5t-17 45.5v121l185 36q12 27 23 58t19.5 61.5t13.5 60t5 55.5
q0 33 -9.5 64.5t-32 55.5t-60.5 39t-96 15q-69 0 -120 -20.5t-84.5 -56t-49.5 -84t-16 -104.5q0 -63 26.5 -127t81.5 -120q12 -9 22 -19l-70 -109q-12 -19 -25.5 -27t-34.5 -8q-22 0 -44 9.5t-47.5 20.5t-57.5 20.5t-73 9.5q-59 0 -90.5 -22.5t-31.5 -62.5q0 -29 20.5 -48
t54.5 -33.5t77 -27.5t88 -29t88 -37.5t77 -53t54.5 -76.5t20.5 -108q0 -67 -21.5 -125t-63 -103t-103.5 -75t-143 -42l-11 -41q48 -12 79.5 -28.5t50.5 -36t27 -42.5t8 -48q0 -35 -19.5 -63t-54.5 -48t-84.5 -30.5t-109.5 -10.5q-41 0 -75.5 4t-72.5 12l28 93q6 27 34 27z
" />
    <glyph glyph-name="longs" unicode="&#x17f;" horiz-adv-x="636" 
d="M182 0v824l-68 14q-35 8 -56.5 25t-21.5 50v122h146v59q0 89 28.5 161t82 123t130.5 79t175 28q38 0 70.5 -4.5t67.5 -14.5l-10 -156q-2 -26 -25 -34t-49 -8q-41 0 -71.5 -9.5t-50 -31.5t-29 -57t-9.5 -86v-1084h-310z" />
    <glyph glyph-name="tcaron" unicode="&#x165;" horiz-adv-x="768" 
d="M26 0zM476 -16q-74 0 -130.5 21.5t-95 61t-58.5 95.5t-20 125v536h-88q-24 0 -41 15.5t-17 45.5v121l165 32l61 253q12 48 68 48h162v-303h257v-212h-257v-515q0 -36 17.5 -59.5t50.5 -23.5q17 0 28.5 3.5t20 8t16 8t17.5 3.5q14 0 22.5 -6.5t17.5 -20.5l94 -147
q-60 -45 -135 -67.5t-155 -22.5zM878 1499q16 0 26 -4t14.5 -10.5t6 -13.5t1.5 -13q0 -8 -3.5 -23t-15 -44t-33 -77.5t-56.5 -124.5q-17 -33 -42 -42.5t-64 -9.5h-110l66 362h210z" />
    <glyph glyph-name="tbar" unicode="&#x167;" horiz-adv-x="777" 
d="M54 696h120v127h-88q-24 0 -41 15.5t-17 45.5v121l165 32l61 253q12 48 68 48h162v-303h257v-212h-257v-127h268v-184h-268v-204q0 -36 17.5 -59.5t50.5 -23.5q17 0 28.5 3.5t20 8t16 8t17.5 3.5q14 0 22.5 -6.5t17.5 -20.5l94 -147q-60 -45 -135 -67.5t-155 -22.5
q-74 0 -130.5 21.5t-95 61t-58.5 95.5t-20 125v225h-120v184z" />
    <glyph glyph-name="uogonek" unicode="&#x173;" horiz-adv-x="1140" 
d="M1053 -167q21 0 28 -19l46 -111q-35 -21 -87 -35.5t-111 -14.5q-107 0 -162.5 42t-55.5 107q0 51 33.5 102t108.5 96h-10q-58 0 -76 52l-19 60q-30 -29 -62 -52.5t-68.5 -40t-78.5 -26t-92 -9.5q-85 0 -150.5 29.5t-110.5 82.5t-68 125t-23 158v658h310v-658
q0 -77 35 -119t103 -42q51 0 95.5 21t86.5 59v739h310v-1037q-39 -21 -66.5 -52.5t-27.5 -69.5q0 -24 13.5 -38.5t40.5 -14.5q15 0 24 1t15 2.5t10 3t9 1.5z" />
    <glyph glyph-name="_300" horiz-adv-x="814" 
d="M738 842h-170q-24 0 -39.5 11.5t-23.5 29.5l-14 50h-169l-14 -50q-5 -16 -21.5 -28.5t-39.5 -12.5h-172l233 615h198zM364 1083h84l-26 94q-9 21 -15 51q-4 -15 -7.5 -28t-8.5 -24z" />
    <glyph glyph-name="_301" horiz-adv-x="590" 
d="M435 919q-29 0 -44.5 7.5t-26.5 33.5l-8 14q-20 -16 -37.5 -28t-36 -19.5t-39 -11.5t-46.5 -4q-84 0 -127 40.5t-43 113.5q0 26 12 56.5t44.5 56.5t91 44.5t151.5 20.5v5q0 33 -13 44t-35 11q-23 0 -37 -4t-26 -8.5t-26 -8.5t-38 -4q-22 0 -37.5 11t-24.5 26l-39 68
q52 43 118 64t138 21q52 0 94 -17t72 -46.5t46.5 -70t16.5 -86.5v-329h-100zM266 1052q17 0 30.5 4.5t29.5 19.5v42q-33 -2 -51.5 -6.5t-28 -10t-12 -12.5t-2.5 -13q0 -14 6 -19t28 -5z" />
    <glyph glyph-name="_302" horiz-adv-x="642" 
d="M277 1416q27 23 60.5 36t81.5 13q38 0 72.5 -19t60 -54t40.5 -86t15 -114q0 -61 -17.5 -112.5t-48 -89t-72.5 -58.5t-90 -21q-23 0 -40.5 4.5t-31.5 12.5t-25.5 18.5t-23.5 22.5l-2 -12q-5 -23 -17.5 -30.5t-32.5 -7.5h-144v771h215v-274zM336 1303q-19 0 -31.5 -6
t-27.5 -20v-195q12 -8 25 -10.5t24 -2.5q9 0 19.5 4.5t19 17.5t14 37t5.5 64q0 34 -3.5 55.5t-10 34t-15.5 17t-19 4.5z" />
    <glyph glyph-name="_303" horiz-adv-x="551" 
d="M470 1300q-10 -11 -18.5 -18t-25.5 -7q-15 0 -25 5t-19.5 11t-22 11t-31.5 5q-43 0 -59 -30.5t-16 -87.5q0 -58 19.5 -89t55.5 -31q22 0 34 6t20.5 13t18 13t27.5 6q26 0 38 -19l63 -77q-31 -35 -63 -54.5t-63 -30t-60.5 -13t-55.5 -2.5q-49 0 -94.5 18.5t-81 54
t-57 87.5t-21.5 118q0 57 17.5 107t53 87.5t88 59.5t121.5 22t120.5 -21.5t93.5 -66.5z" />
    <glyph glyph-name="_304" horiz-adv-x="642" 
d="M445 919q-39 0 -51 34l-9 28q-30 -30 -67.5 -50t-94.5 -20q-38 0 -72 19t-59.5 55t-40.5 86.5t-15 113.5q0 61 17 113t47.5 90t72.5 59t91 21q35 0 58.5 -8.5t42.5 -22.5v253h215v-771h-135zM312 1076q18 0 30 5t23 16v200q-13 8 -25.5 10.5t-23.5 2.5q-10 0 -20.5 -4.5
t-19 -17.5t-14 -38t-5.5 -65q0 -33 4 -54.5t11 -33.5t17 -16.5t23 -4.5z" />
    <glyph glyph-name="_305" horiz-adv-x="603" 
d="M309 1465q57 0 104 -17t80.5 -49.5t52 -79t18.5 -106.5q0 -48 -9 -63.5t-38 -15.5h-266q11 -35 33 -48.5t54 -13.5q22 0 37.5 5.5t29 12t27.5 12t33 5.5q26 0 38 -19l63 -77q-31 -35 -63.5 -54.5t-65 -30t-63 -13t-56.5 -2.5q-57 0 -108.5 18t-90.5 54t-62.5 90.5
t-23.5 126.5q0 52 19 100t55 84.5t87 58.5t115 22zM313 1317q-28 0 -43 -15t-21 -44h123q0 7 -1.5 17t-7 19.5t-17.5 16t-33 6.5z" />
    <glyph glyph-name="_306" horiz-adv-x="434" 
d="M99 919v404l-15 5q-23 5 -38 16.5t-15 34.5v85h68v12q0 46 16 84.5t47 66.5t76 44t102 16q21 0 38 -2t37 -6l-4 -107q-1 -20 -11.5 -31t-30.5 -11q-31 0 -46.5 -11.5t-15.5 -50.5v-4h102v-147h-95v-398h-215z" />
    <glyph glyph-name="_307" horiz-adv-x="604" 
d="M276 1467q66 0 120 -23h175v-80q0 -17 -9.5 -27t-32.5 -15l-25 -8q1 -5 1.5 -11t0.5 -12q0 -41 -18 -73.5t-49.5 -55.5t-73.5 -35t-89 -12h-15t-15 1q-2 -2 -2 -6q0 -12 23.5 -13.5t58.5 -2t76 -3.5t76 -17.5t58.5 -44.5t23.5 -84q0 -38 -18 -74t-53.5 -64.5t-88 -46
t-120.5 -17.5q-66 0 -113.5 12t-78.5 31.5t-45.5 44.5t-14.5 51q0 32 17 52.5t48 33.5q-15 13 -24 32.5t-9 47.5q0 26 17 53t57 45q-44 23 -69.5 59.5t-25.5 85.5q0 42 18.5 74.5t51 55t75.5 34.5t92 12zM362 912q0 10 -12 14t-31.5 5t-44.5 0.5t-52 0.5q-9 -9 -9 -18
q0 -6 1 -12.5t8 -11t21.5 -7.5t40.5 -3t41.5 3t23.5 8t10.5 10.5t2.5 10.5zM276 1246q25 0 33 10t8 27q0 19 -7.5 29t-33.5 10t-34 -10t-8 -29q0 -16 8 -26.5t34 -10.5z" />
    <glyph glyph-name="_308" horiz-adv-x="639" 
d="M63 919v771h215v-262q23 17 51.5 27t68.5 10q43 0 77.5 -16t58 -44t36 -65.5t12.5 -80.5v-340h-215v340q0 44 -37 44q-26 0 -52 -18v-366h-215z" />
    <glyph glyph-name="_309" horiz-adv-x="334" 
d="M274 1419v-500h-214v500h214zM292 1585q0 -24 -10 -45.5t-26.5 -37t-39.5 -25t-48 -9.5q-24 0 -46 9.5t-38 25t-25.5 37t-9.5 45.5t9.5 45.5t25.5 37.5t38 25.5t46 9.5q25 0 48 -9.5t39.5 -25.5t26.5 -37.5t10 -45.5z" />
    <glyph glyph-name="_310" horiz-adv-x="335" 
d="M275 1419v-466q0 -43 -10.5 -81t-35.5 -67t-67 -46t-106 -17q-21 0 -40.5 2t-40.5 7l7 113q-1 11 4.5 21t23.5 10q17 0 27 1.5t15 7.5t6.5 17.5t1.5 31.5v466h215zM291 1585q0 -24 -9.5 -45.5t-26.5 -37t-39.5 -25t-47.5 -9.5q-24 0 -46 9.5t-38 25t-25.5 37t-9.5 45.5
t9.5 45.5t25.5 37.5t38 25.5t46 9.5q25 0 47.5 -9.5t39.5 -25.5t26.5 -37.5t9.5 -45.5z" />
    <glyph glyph-name="_311" horiz-adv-x="677" 
d="M278 1690v-413h23q18 0 28 5t15 19l45 123q7 18 24 25.5t40 7.5h197l-90 -174q-21 -39 -60 -59q31 -16 48 -55l103 -250h-195q-23 0 -42 7.5t-24 27.5l-41 164q-4 15 -13 18.5t-24 3.5h-34v-221h-215v771h215z" />
    <glyph glyph-name="_312" horiz-adv-x="340" 
d="M277 1690v-771h-214v771h214z" />
    <glyph glyph-name="_313" horiz-adv-x="938" 
d="M63 919v538h135q37 0 46 -36l4 -17q13 12 27 23.5t30.5 19.5t36 13t44.5 5q45 0 75.5 -22t47.5 -58q29 43 76.5 61.5t95.5 18.5q100 0 150 -54t50 -152v-340h-214v340q0 24 -10 34t-33 10q-20 0 -31 -12t-11 -32v-340h-215v340q0 23 -10 33.5t-36 10.5q-23 0 -43 -14
v-370h-215z" />
    <glyph glyph-name="uni207F" unicode="&#x207f;" horiz-adv-x="637" 
d="M63 919v538h114q21 0 34 -9.5t22 -31.5l7 -20q31 30 66 49.5t91 19.5q44 0 78.5 -16t58 -44t35.5 -65t12 -80v-341h-214v341q0 42 -38 42q-26 0 -52 -18v-365h-214z" />
    <glyph glyph-name="_315" horiz-adv-x="644" 
d="M323 1465q63 0 115.5 -19t91 -54.5t60 -87t21.5 -115.5q0 -65 -21.5 -116.5t-60 -87.5t-91 -55t-115.5 -19t-116 19t-92 55t-60.5 87.5t-21.5 116.5q0 64 21.5 115.5t60.5 87t92 54.5t116 19zM323 1070q35 0 50.5 26.5t15.5 91.5q0 66 -15.5 92t-50.5 26q-37 0 -53 -26
t-16 -92q0 -65 16 -91.5t53 -26.5z" />
    <glyph glyph-name="_316" horiz-adv-x="643" 
d="M63 759v698h135q19 0 32.5 -8t18.5 -26l6 -29q31 32 69 53t96 21q38 0 72.5 -19.5t60 -55.5t40.5 -87t15 -114q0 -61 -17.5 -112.5t-48.5 -89t-72.5 -58.5t-90.5 -21q-35 0 -58.5 8t-42.5 22v-182h-215zM343 1303q-26 0 -39.5 -6t-25.5 -19v-196q12 -8 25 -10.5t24 -2.5
q10 0 20.5 4.5t19 17.5t14 37t5.5 64q0 34 -4 55.5t-10 34t-13.5 17t-15.5 4.5z" />
    <glyph glyph-name="_317" horiz-adv-x="642" 
d="M579 1457v-698h-215v203q-27 -23 -61 -37t-81 -14q-38 0 -72 19t-59.5 55t-40.5 86.5t-15 113.5q0 61 17 113t47.5 90t72.5 59t91 21q24 0 42 -4t33 -11.5t27.5 -17t24.5 -19.5l3 7q13 34 51 34h135zM304 1076q20 0 33.5 6t26.5 19v196q-13 8 -25.5 10.5t-23.5 2.5
q-12 0 -23 -5.5t-19 -19.5t-12.5 -38t-4.5 -62q0 -33 4.5 -54.5t11.5 -33.5t15.5 -16.5t16.5 -4.5z" />
    <glyph glyph-name="_318" horiz-adv-x="447" 
d="M63 919v538h129q32 0 43 -10.5t18 -38.5l5 -25q25 39 54 62t65 23q20 0 33.5 -5.5t24.5 -13.5l-14 -160q-3 -15 -11 -20.5t-21 -5.5q-10 0 -27.5 1.5t-25.5 1.5q-22 0 -35.5 -9.5t-22.5 -26.5v-311h-215z" />
    <glyph glyph-name="_319" horiz-adv-x="513" 
d="M427 1313q-8 -12 -17 -17.5t-23 -5.5t-26.5 4t-25 8.5t-25.5 8.5t-29 4q-17 0 -23.5 -2.5t-6.5 -12.5q0 -13 16.5 -20.5t41.5 -14.5t53.5 -17t53.5 -28t41.5 -46t16.5 -71q0 -42 -15.5 -77.5t-46 -61t-76.5 -39.5t-106 -14q-27 0 -56.5 5.5t-57 14.5t-51.5 21t-39 26
l50 81q8 14 20.5 21t32.5 7q18 0 29.5 -5t22.5 -11t24.5 -11t35.5 -5q23 0 27.5 4.5t4.5 6.5q0 14 -16.5 21t-42 13.5t-54.5 16.5t-54.5 29.5t-42 51.5t-16.5 84q0 37 13.5 70.5t42 58.5t71.5 39.5t103 14.5q63 0 116.5 -22.5t82.5 -53.5z" />
    <glyph glyph-name="_320" horiz-adv-x="468" 
d="M275 911q-44 0 -77 13t-55.5 36t-34 55t-11.5 70v232h-30q-16 0 -27 11t-11 31v84l87 23l36 99q8 32 46 32h113v-133h116v-147h-116v-217q0 -5 3 -13t13 -8q8 0 9.5 -0.5t12.5 -0.5q9 0 14.5 -4t12.5 -14l66 -103q-37 -24 -79.5 -35t-87.5 -11z" />
    <glyph glyph-name="_321" horiz-adv-x="637" 
d="M270 1457v-341q0 -20 10.5 -31t27.5 -11q26 0 52 17v366h215v-538h-135q-35 0 -51 34l-6 14q-28 -25 -60.5 -40.5t-82.5 -15.5q-44 0 -78 16t-57.5 43.5t-36 65t-12.5 80.5v341h214z" />
    <glyph glyph-name="_322" horiz-adv-x="584" 
d="M389 919h-196l-199 538h180q22 0 38 -9t20 -26l30 -150q9 -41 17 -78.5t15 -75.5q8 38 16.5 76t19.5 80l32 148q4 16 19.5 25.5t35.5 9.5h172z" />
    <glyph glyph-name="_323" horiz-adv-x="903" 
d="M14 1457h178q22 0 38.5 -10.5t20.5 -34.5l17 -136q5 -35 11 -67.5t12 -64.5q7 32 15 64.5t18 67.5l32 137q6 21 22 32t36 11h86q23 0 39.5 -11t22.5 -34l29 -135q8 -33 15 -64.5t13 -61.5l25 125l23 139q4 22 20 32.5t36 10.5h169l-166 -538h-171q-27 0 -37 36l-45 182
q-6 21 -10.5 42t-9.5 42q-4 -22 -9 -43t-11 -43l-46 -180q-11 -36 -44 -36h-168z" />
    <glyph glyph-name="_324" horiz-adv-x="647" 
d="M181 1198l-166 259h207q22 0 32 -4.5t18 -18.5l70 -125q4 11 8.5 22.5t9.5 24.5l29 74q7 15 18.5 21t26.5 6h197l-166 -249l173 -289h-207q-22 0 -35.5 11t-21.5 25l-66 125q-6 -18 -14 -35l-40 -90q-7 -14 -21 -25t-34 -11h-191z" />
    <glyph glyph-name="_325" horiz-adv-x="585" 
d="M324 811q-14 -31 -28 -41.5t-43 -10.5h-162l107 222l-207 476h192q23 0 36.5 -10.5t18.5 -24.5l42 -137q14 -42 24 -82q7 22 13.5 43.5t14.5 42.5l40 133q5 15 20.5 25t34.5 10h167z" />
    <glyph glyph-name="_326" horiz-adv-x="528" 
d="M482 1371q0 -47 -32 -84l-163 -208h194v-160h-441v89q0 13 7.5 34t27.5 43l163 213h-185v159h429v-86z" />
    <glyph glyph-name="_327" 
d="M269 1867q23 0 40 -1.5t30.5 -6t25 -13.5t24.5 -25l209 -270h-226q-18 0 -31 0.5t-24.5 3.5t-22 8.5t-22.5 16.5l-325 287h322z" />
    <glyph glyph-name="_328" 
d="M879 1867l-323 -285q-12 -11 -23 -17t-23 -9t-25.5 -4t-30.5 -1h-226l189 270q12 16 23.5 25.5t25 14t31 5.5t40.5 1h342z" />
    <glyph glyph-name="_329" 
d="M790 1551h-224q-18 0 -44 6.5t-54 39.5l-50 78q-5 7 -9.5 13t-8.5 12l-18 -25l-50 -78q-28 -33 -54 -39.5t-44 -6.5h-214l244 278h282z" />
    <glyph glyph-name="_330" 
d="M10 1829h224q9 0 20.5 -0.5t23.5 -4t23.5 -10.5t21.5 -20l59 -89l18 -26q4 6 8.5 12.5t9.5 13.5l58 88q10 13 22 20.5t24 11t23.5 4t20.5 0.5h224l-244 -278h-292z" />
    <glyph glyph-name="uni0315" unicode="&#x315;" 
d="M524 1499q16 0 26 -4t14.5 -10.5t6 -13.5t1.5 -13q0 -8 -3.5 -23t-15 -44t-33 -77.5t-56.5 -124.5q-17 -33 -42 -42.5t-64 -9.5h-110l66 362h210z" />
    <glyph glyph-name="_332" 
d="M524 1729q22 0 37 8.5t24.5 22t14 29t4.5 29.5h188q0 -55 -15 -106t-44 -90.5t-72 -63t-99 -23.5t-95.5 15t-70 33.5t-55.5 33.5t-51 15q-22 0 -37 -9t-24 -22.5t-13 -29.5t-4 -30h-190q0 55 15 106t44.5 91t72 64t98.5 24t96 -15t70 -33.5t55 -33.5t51 -15z" />
    <glyph glyph-name="_333" 
d="M326 1668q0 -32 -12.5 -59t-34.5 -47.5t-51 -32t-62 -11.5q-30 0 -57.5 11.5t-48.5 32t-33.5 47.5t-12.5 59q0 31 12.5 59t33.5 49t48.5 33t57.5 12q33 0 62 -12t51 -33t34.5 -49t12.5 -59zM786 1668q0 -32 -12.5 -59t-33.5 -47.5t-49.5 -32t-60.5 -11.5t-60.5 11.5
t-49.5 32t-33.5 47.5t-12.5 59q0 31 12.5 59t33.5 49t49.5 33t60.5 12t60.5 -12t49.5 -33t33.5 -49t12.5 -59z" />
    <glyph glyph-name="_334" 
d="M80 1726h640v-170h-640v170z" />
    <glyph glyph-name="_335" 
d="M400 1547q-79 0 -144.5 16.5t-113 51t-74 87.5t-26.5 126h236q0 -49 26.5 -76t95.5 -27t95.5 27t26.5 76h236q0 -65 -26.5 -117t-74 -88.5t-113 -56t-144.5 -19.5z" />
    <glyph glyph-name="_336" 
d="M175 1714q0 46 18.5 83.5t49 64t70.5 41t84 14.5q46 0 87 -14.5t72.5 -41t50 -64t18.5 -83.5q0 -44 -18.5 -80.5t-50 -62.5t-72.5 -40t-87 -14q-44 0 -84 14t-70.5 40t-49 62.5t-18.5 80.5zM321 1714q0 -35 19.5 -57.5t60.5 -22.5q36 0 57 22.5t21 57.5q0 38 -21 60
t-57 22q-41 0 -60.5 -22t-19.5 -60z" />
    <glyph glyph-name="_337" 
d="M156 1351q0 50 20 91t53 69.5t77 44t92 15.5q49 0 94 -15.5t79.5 -44t54.5 -69.5t20 -91q0 -49 -20 -88.5t-54.5 -67.5t-79.5 -43t-94 -15q-48 0 -92 15t-77 43t-53 67.5t-20 88.5zM322 1351q0 -35 19.5 -57.5t60.5 -22.5q36 0 57 22.5t21 57.5q0 38 -21 60t-57 22
q-41 0 -60.5 -22t-19.5 -60zM826 1921l-260 -264q-23 -23 -44 -32.5t-56 -9.5h-186l136 246q17 29 40 44.5t70 15.5h300z" />
    <glyph glyph-name="_338" 
d="M190 1681q0 43 17 77.5t45.5 59.5t65.5 38.5t78 13.5q42 0 80.5 -13.5t67.5 -38.5t46 -59.5t17 -77.5q0 -41 -17 -74.5t-46 -57.5t-67.5 -37.5t-80.5 -13.5q-41 0 -78 13.5t-65.5 37.5t-45.5 57.5t-17 74.5zM325 1681q0 -32 18 -53t56 -21q34 0 53.5 21t19.5 53
q0 36 -19.5 56.5t-53.5 20.5q-38 0 -56 -20.5t-18 -56.5zM898 2142l-323 -208q-12 -11 -23 -17t-23 -9t-25.5 -4t-30.5 -1h-226l189 193q12 16 23.5 25.5t25 14t31 5.5t40.5 1h342z" />
    <glyph glyph-name="_339" 
d="M559 1829l-207 -235q-24 -20 -45 -31.5t-55 -11.5h-146l129 218q17 28 47 44t77 16h200zM979 1829l-267 -235q-25 -21 -50 -32t-60 -11h-166l181 218q23 26 54 43t78 17h230z" />
    <glyph glyph-name="_340" 
d="M578 1702q0 -34 -14.5 -65t-39 -54t-58 -37t-70.5 -14q-35 0 -66.5 14t-55.5 37t-38 54t-14 65q0 36 14 67.5t38 55.5t55.5 38t66.5 14q37 0 70.5 -14t58 -38t39 -55.5t14.5 -67.5z" />
    <glyph glyph-name="_341" 
d="M504 -85q16 0 26 -4t14.5 -10.5t6 -13.5t1.5 -13q0 -9 -2 -24t-9.5 -40t-22.5 -60.5t-40 -85.5q-17 -33 -42 -42.5t-64 -9.5h-110l52 303h190z" />
    <glyph glyph-name="_342" 
d="M532 1174h-264l122 284h194z" />
    <glyph glyph-name="Gamma" unicode="&#x393;" horiz-adv-x="1109" 
d="M1079 1206h-598v-1206h-340v1457h938v-251z" />
    <glyph glyph-name="uni0394" unicode="&#x394;" horiz-adv-x="1430" 
d="M10 93q0 42 9.5 90t29.5 97l496 1177h346l488 -1173q40 -95 40 -191v-93h-1409v93zM353 258h690l-268 698q-17 42 -35.5 99t-35.5 124q-17 -69 -35.5 -125.5t-35.5 -99.5z" />
    <glyph glyph-name="Theta" unicode="&#x398;" horiz-adv-x="1629" 
d="M559 858h509v-261h-509v261zM1571 729q0 -158 -54.5 -294t-153.5 -236.5t-238.5 -157.5t-309.5 -57t-310 57t-239.5 157.5t-154 236.5t-54.5 294t54.5 294t154 236t239.5 157t310 57t309.5 -57.5t238.5 -157.5t153.5 -236t54.5 -293zM1225 729q0 108 -28 194.5
t-80.5 146.5t-128.5 92t-173 32q-98 0 -174.5 -32t-129 -92t-80.5 -146.5t-28 -194.5q0 -109 28 -195.5t80.5 -146.5t129 -91.5t174.5 -31.5q97 0 173 31.5t128.5 91.5t80.5 146.5t28 195.5z" />
    <glyph glyph-name="Lambda" unicode="&#x39b;" horiz-adv-x="1418" 
d="M1445 0h-292q-44 0 -71 20.5t-41 52.5l-282 780q-20 50 -39 110.5t-36 126.5q-14 -66 -31.5 -126.5t-37.5 -110.5l-280 -780q-11 -28 -39.5 -50.5t-70.5 -22.5h-254l584 1457h306z" />
    <glyph glyph-name="Xi" unicode="&#x39e;" horiz-adv-x="1252" 
d="M1187 1457v-270h-1120v270h1120zM1187 270v-270h-1120v270h1120zM317 867h620v-279h-620v279z" />
    <glyph glyph-name="Pi" unicode="&#x3a0;" horiz-adv-x="1554" 
d="M1413 0h-340v1206h-592v-1206h-340v1457h1272v-1457z" />
    <glyph glyph-name="Sigma" unicode="&#x3a3;" horiz-adv-x="1233" 
d="M837 757q0 -17 -2.5 -34t-12 -37t-27 -44t-45.5 -54l-211 -254q-34 -38 -58 -59.5t-47 -35.5q94 12 161 12h579v-251h-1120v122q0 35 17.5 70.5t43.5 62.5l423 472l-445 499q-17 18 -28 42t-11 49v140h1120v-251h-538q-61 0 -110 3.5t-96 11.5q106 -51 173 -124l148 -186
q28 -30 45 -53t26 -40.5t12 -32t3 -28.5z" />
    <glyph glyph-name="Phi" unicode="&#x3a6;" horiz-adv-x="1739" 
d="M1030 1379q151 -2 274 -53.5t210 -139t134.5 -205t47.5 -251.5t-47.5 -251.5t-134.5 -205t-210 -139t-274 -53.5v-191h-320v191q-101 1 -189.5 25t-162.5 66.5t-132.5 101t-98.5 130.5t-61.5 154.5t-21.5 171.5t21.5 171.5t61.5 154.5t98.5 130.5t132.5 101t162.5 66.5
t189.5 25v189h320v-189zM371 730q0 -82 24 -153.5t68.5 -124.5t107 -85t139.5 -34v793q-77 -2 -139.5 -34t-107 -85t-68.5 -124.5t-24 -152.5zM1369 730q0 81 -24.5 152.5t-68.5 124.5t-107 85t-139 34v-793q76 2 139 34t107 85t68.5 124.5t24.5 153.5z" />
    <glyph glyph-name="Psi" unicode="&#x3a8;" horiz-adv-x="1698" 
d="M301 1457q53 0 82.5 -31.5t29.5 -77.5v-417q0 -74 11.5 -131t41 -97.5t80.5 -64.5t130 -32v851h340v-851q80 7 131.5 30.5t81.5 64t42 98t12 132.5v417q0 46 29.5 77.5t82.5 31.5h228v-526q0 -127 -38.5 -231t-114.5 -179.5t-190 -121t-264 -55.5v-344h-340v345
q-150 10 -262.5 55.5t-188.5 121t-114 179.5t-38 230v526h228z" />
    <glyph glyph-name="uni03A9" unicode="&#x3a9;" horiz-adv-x="1645" 
d="M926 0v369q58 8 110 45.5t91.5 96.5t63 135t23.5 162q0 99 -30.5 171.5t-83.5 120.5t-124.5 71t-153.5 23q-81 0 -152.5 -23t-124.5 -71t-83.5 -120.5t-30.5 -171.5q0 -86 23.5 -162t63 -135t91.5 -96.5t110 -45.5v-369h-540q-51 0 -81.5 28.5t-30.5 73.5v166h178
q57 0 116 -5.5t116 -13.5q-86 33 -156.5 89t-120.5 129t-77.5 160.5t-27.5 184.5q0 138 55 259t152.5 210t231 140.5t289.5 51.5t289 -51.5t230.5 -140.5t152.5 -210t55 -259q0 -97 -27.5 -184.5t-77.5 -160.5t-120.5 -129t-156.5 -89q57 8 116 13.5t116 5.5h178v-166
q0 -45 -30.5 -73.5t-81.5 -28.5h-540z" />
    <glyph glyph-name="alpha" unicode="&#x3b1;" horiz-adv-x="1225" 
d="M1038 -11q-75 0 -138 36.5t-100 114.5q-36 -44 -77.5 -74t-84 -48t-85.5 -26t-82 -8q-90 0 -166.5 35.5t-132.5 102t-88 161t-32 212.5q0 124 35.5 227.5t98 178t148.5 115.5t187 41q88 0 159 -30t123 -79l11 37q18 52 76 52h192l-50 -522q0 -48 -5 -94.5t-5 -93.5
q0 -30 9.5 -52t26 -37t37.5 -22t44 -7h85v-119q0 -19 -13 -37t-37 -32.5t-58.5 -23t-77.5 -8.5zM550 222q37 0 68 13.5t55 44.5t40 81.5t23 124.5l22 235q-13 22 -32 41.5t-42 34.5t-50.5 23.5t-56.5 8.5q-38 0 -74.5 -17t-65.5 -55t-47 -100.5t-18 -152.5q0 -81 14.5 -135
t39 -87t56.5 -46.5t68 -13.5z" />
    <glyph glyph-name="beta" unicode="&#x3b2;" horiz-adv-x="1155" 
d="M648 -16q-142 0 -234 79v-394h-310v1265q0 121 28.5 220t87.5 169.5t149.5 109.5t215.5 39q118 0 201 -33t135 -86t75.5 -120t23.5 -134q0 -101 -45.5 -180.5t-140.5 -120.5q133 -42 203.5 -138.5t70.5 -227.5q0 -88 -33 -169t-93 -143t-145 -99t-189 -37zM550 908
q48 0 82 8t55.5 27t31 50t9.5 78q0 101 -41 143t-108 42q-46 0 -77.5 -17.5t-51 -57t-28 -103t-8.5 -154.5v-634q31 -42 68 -59.5t87 -17.5q61 0 104 20.5t70 55t39 80.5t12 98q0 71 -20 112t-50 62t-66.5 27t-69.5 6h-63v234h25z" />
    <glyph glyph-name="_355" horiz-adv-x="1166" 
d="M1047 1151q0 -88 -45.5 -151.5t-139.5 -116.5q60 -14 107.5 -49.5t80.5 -86.5t50 -116t17 -137q0 -115 -41.5 -209t-114.5 -161t-171 -103.5t-210 -36.5q-132 0 -227 50t-156.5 141t-90.5 217t-29 279q0 193 43 342.5t121.5 252t188.5 156t244 53.5q109 0 180.5 -31.5
t114.5 -79.5t60.5 -105t17.5 -108zM378 614q4 -113 21 -189t45 -122t65.5 -66t82.5 -20q52 0 94 22.5t71 61t44.5 89.5t15.5 107q0 59 -17 103.5t-48 70.5t-74.5 31t-95.5 -15zM639 1245q-48 0 -90 -22t-75.5 -70t-57 -125t-33.5 -187l168 57q100 35 148.5 94t48.5 138
q0 52 -24 83.5t-85 31.5z" />
    <glyph glyph-name="gamma" unicode="&#x3b3;" horiz-adv-x="1147" 
d="M412 -329v441q-8 70 -23 150.5t-36.5 160t-50 153t-64.5 129.5t-79 89.5t-93 33.5h-38v110q0 23 6.5 43t23 35t45 23.5t73.5 8.5q103 0 181.5 -47t134.5 -130.5t91.5 -198t53.5 -250.5q30 64 55 133.5t45 137.5t34.5 133t23.5 122q8 50 33 69.5t55 19.5h266
q-21 -101 -65 -218t-101.5 -237.5t-125 -238.5t-135.5 -222v-450h-310z" />
    <glyph glyph-name="delta" unicode="&#x3b4;" horiz-adv-x="1133" 
d="M950 1238q-5 -37 -23 -50t-54 -13q-21 0 -59.5 9t-84.5 20.5t-93.5 20.5t-87.5 9q-43 0 -62.5 -13.5t-19.5 -34.5q0 -25 26.5 -47.5t70 -47.5t99 -54t113.5 -65.5t113.5 -83t99 -107t70 -136t26.5 -170.5q0 -104 -34 -193.5t-100 -155t-162.5 -102.5t-220.5 -37
q-120 0 -216.5 35.5t-163.5 100t-103 153.5t-36 196q0 153 76 265.5t234 179.5q-38 24 -71.5 50.5t-58.5 58.5t-39 71.5t-14 89.5q0 63 25 114.5t75 88t124 57t172 20.5q41 0 93 -3.5t107 -9.5t108 -14t96 -18zM775 469q0 63 -17 113t-46.5 90t-68.5 71.5t-82 58.5
q-38 -18 -72.5 -45.5t-61.5 -66t-43 -90t-16 -118.5q0 -56 12 -105.5t36.5 -86t62 -57.5t88.5 -21q46 0 84.5 17.5t66 51t42.5 81t15 107.5z" />
    <glyph glyph-name="epsilon" unicode="&#x3b5;" horiz-adv-x="921" 
d="M804 804q-17 -26 -32 -34t-36 -8q-19 0 -37.5 10t-42.5 21.5t-57 21.5t-81 10q-69 0 -106 -24t-37 -69q0 -47 42 -74t125 -27h167v-193h-167q-94 0 -132.5 -27.5t-38.5 -78.5t35 -85.5t107 -34.5q53 0 87.5 13.5t60 30t47 30.5t49.5 14q37 0 56 -27l90 -111
q-48 -55 -102.5 -89t-108.5 -53t-105 -26t-92 -7q-85 0 -164 20.5t-140 61t-98 100t-37 137.5q0 82 44 139t113 91q-76 41 -108 101.5t-32 122.5q0 60 28 113.5t83.5 93.5t138 63t190.5 23q123 0 211 -37t150 -96z" />
    <glyph glyph-name="zeta" unicode="&#x3b6;" horiz-adv-x="831" 
d="M850 1333q4 -15 0 -32.5t-18.5 -40.5t-41.5 -53.5t-70 -72.5q-31 -32 -70 -71t-80.5 -85.5t-81.5 -99t-71.5 -110.5t-50.5 -120.5t-19 -128.5q0 -50 12 -86.5t38.5 -65t69 -51t103.5 -43.5q86 -29 142.5 -61t90.5 -69.5t47.5 -80t13.5 -91.5q0 -140 -98 -290l-240 88
q8 13 17 30.5t16.5 36t12.5 37t5 34.5t-7 32t-26 32t-52.5 32.5t-87.5 34.5q-89 29 -156 66.5t-111 87.5t-66 114.5t-22 147.5q0 105 33.5 203t93.5 193t143 189t182 192q-71 -16 -154 -16h-121q-35 0 -59.5 9t-39.5 23.5t-22 31.5t-7 34v144h723z" />
    <glyph glyph-name="eta" unicode="&#x3b7;" horiz-adv-x="1204" 
d="M1109 -329h-310v988q0 76 -35 118.5t-103 42.5q-51 0 -96 -22t-86 -59v-739h-310v712q0 60 -25.5 88.5t-71.5 28.5h-55v118q0 19 8 37t26.5 32.5t47.5 23t71 8.5q78 0 143.5 -33.5t100.5 -103.5q69 63 152.5 102.5t190.5 39.5q85 0 150.5 -29.5t110.5 -82t68 -125
t23 -157.5v-988z" />
    <glyph glyph-name="theta" unicode="&#x3b8;" horiz-adv-x="1215" 
d="M610 1475q118 0 215 -47.5t167 -141t108.5 -232.5t38.5 -322q0 -185 -38.5 -324.5t-108.5 -234t-167 -142t-215 -47.5q-119 0 -217 47.5t-168.5 142t-109.5 234t-39 324.5q0 183 39 322t109.5 232.5t168.5 141t217 47.5zM610 217q49 0 88.5 23t68.5 74t46.5 132.5
t22.5 197.5h-458q5 -116 23 -197.5t47.5 -132.5t70 -74t91.5 -23zM610 1245q-49 0 -89 -21.5t-69 -69t-47.5 -123t-24.5 -183.5h454q-6 108 -24.5 183.5t-47 123t-67 69t-85.5 21.5z" />
    <glyph glyph-name="_362" horiz-adv-x="1343" 
d="M169 594q0 42 -10 65.5t-49 23.5h-85v119q0 19 13 37t37 32t59 22.5t79 8.5q55 0 103.5 -16t84.5 -52t57 -95t21 -145v-165q0 -106 41 -158.5t114 -52.5q52 0 96 28t76 90.5t49.5 164t17.5 248.5q0 19 -0.5 37.5t-1.5 37.5q-291 4 -434.5 93.5t-143.5 252.5q0 64 25 119
t71 95.5t111.5 63t147.5 22.5q191 0 314.5 -109.5t171.5 -323.5h184v-118q0 -18 -6 -35t-18 -30.5t-31 -21.5t-45 -8h-56q1 -19 1.5 -37.5t0.5 -38.5q0 -171 -34 -312t-103.5 -241.5t-174.5 -155.5t-247 -55q-107 0 -188.5 30.5t-136.5 87.5t-83 139.5t-28 187.5v165z
M576 1161q0 -29 12 -51.5t42.5 -37.5t83.5 -24t134 -11q-10 49 -25.5 89t-37.5 69t-50.5 45t-64.5 16q-44 0 -69 -24.5t-25 -70.5z" />
    <glyph glyph-name="iota" unicode="&#x3b9;" horiz-adv-x="587" 
d="M98 1037h310v-711q0 -58 22 -88t75 -30h102v-90q0 -32 -21 -56t-54 -40t-73.5 -24.5t-79.5 -8.5q-69 0 -122 24.5t-88 67.5t-53 101.5t-18 125.5v729z" />
    <glyph glyph-name="lambda" unicode="&#x3bb;" horiz-adv-x="1119" 
d="M404 921l-76 231q-11 31 -22.5 50.5t-27.5 30t-37.5 14.5t-52.5 4h-82v109q0 23 8 43t27.5 35t51.5 23.5t80 8.5q41 0 86.5 -8.5t89 -31.5t80 -63.5t59.5 -104.5l341 -966q14 -44 41.5 -66.5t86.5 -22.5h62v-119q0 -32 -9.5 -51.5t-27 -30.5t-42 -15t-53.5 -4
q-47 0 -95 9.5t-91 35t-78.5 69t-58.5 111.5l-89 264q-11 27 -17 51t-10 46q-7 -23 -15 -46.5t-18 -48.5l-155 -424q-10 -22 -30 -38t-56 -16h-268z" />
    <glyph glyph-name="uni03BC" unicode="&#x3bc;" horiz-adv-x="1222" 
d="M415 1037v-601q0 -77 35 -124t103 -47t112.5 36.5t70.5 102.5v633h310v-712q0 -59 25.5 -87.5t71.5 -28.5h85v-119q0 -19 -13 -37t-37 -32.5t-58.5 -23t-77.5 -8.5q-42 0 -81.5 11.5t-73 35.5t-59.5 60.5t-42 86.5q-49 -78 -110.5 -119.5t-142.5 -41.5q-96 0 -161 44
q13 -45 18 -94t5 -92v-209h-154q-65 0 -100.5 32t-35.5 92v1242h310z" />
    <glyph glyph-name="nu" unicode="&#x3bd;" horiz-adv-x="1060" 
d="M1061 1037q-17 -81 -44 -170t-62 -181t-77.5 -184.5t-89 -181t-97 -170t-102.5 -150.5h-192l-402 1037h258q33 0 55.5 -15.5t30.5 -38.5l144 -465q17 -50 29.5 -97.5t23.5 -95.5q36 71 63.5 152t48 164t35 163.5t26.5 149.5q7 46 31.5 64.5t54.5 18.5h266z" />
    <glyph glyph-name="xi" unicode="&#x3be;" horiz-adv-x="828" 
d="M835 1333q0 -26 -10.5 -47t-27 -35.5t-38.5 -22t-44 -7.5h-98q-50 0 -90 -14.5t-68.5 -41t-44 -64.5t-15.5 -86q0 -76 57.5 -109t160.5 -33h111v-233h-173q-104 0 -149 -47.5t-45 -126.5q0 -38 12 -66.5t42.5 -53t82.5 -49.5t133 -55q109 -42 159.5 -106t50.5 -154
q0 -78 -24 -152t-74 -150l-240 88q8 13 17 30.5t16.5 35.5t12.5 35t5 31q0 37 -22.5 65.5t-76.5 44.5q-79 22 -151.5 55.5t-128 84.5t-88.5 121t-33 166q0 39 9 84t31 90t59.5 86t94.5 72q-66 35 -100 90.5t-34 133.5q0 40 12 75.5t33 65.5t50 55t63 45h-71q-71 0 -99.5 31
t-28.5 84v108h762v-124z" />
    <glyph glyph-name="_368" horiz-adv-x="835" 
d="M831 1333q0 -26 -10.5 -47t-27 -35.5t-38.5 -22t-44 -7.5h-98q-57 0 -98.5 -13.5t-68 -37t-39 -54.5t-12.5 -67q0 -50 15 -84t43 -54.5t68.5 -29t91.5 -8.5h111v-233h-173q-104 0 -149 -47.5t-45 -126.5q0 -38 12 -66.5t42.5 -53t82.5 -49.5t133 -55q109 -42 159.5 -106
t50.5 -154q0 -78 -24 -152t-74 -150l-240 88q8 13 17 30.5t16.5 35.5t12.5 35t5 31q0 37 -22.5 65.5t-76.5 44.5q-79 22 -151.5 55.5t-128 84.5t-88.5 121t-33 166q0 40 9.5 87t33.5 93.5t64.5 88t102.5 71.5q-72 37 -111 103.5t-39 172.5q0 101 36.5 176.5t102 126t156 76
t199.5 25.5h227v-124z" />
    <glyph glyph-name="rho" unicode="&#x3c1;" horiz-adv-x="1152" 
d="M91 582q0 107 32 194t95 149t157 95.5t217 33.5q102 0 194.5 -37t162.5 -105.5t111 -166t41 -218.5q0 -117 -32.5 -216t-91 -172t-140 -114t-180.5 -41q-76 0 -140 22t-116 63v-398h-310v911zM401 300q39 -48 88 -68t94 -20q43 0 79 17t62.5 54.5t41.5 97.5t15 146
q0 82 -13.5 138t-38.5 90.5t-60 49.5t-77 15q-39 0 -73.5 -15t-61 -45t-41.5 -74.5t-15 -103.5v-282z" />
    <glyph glyph-name="sigma" unicode="&#x3c3;" horiz-adv-x="1262" 
d="M993 810q53 -54 84 -131t31 -180q0 -111 -38 -205.5t-107.5 -163.5t-166.5 -107.5t-215 -38.5t-216 36t-168 103t-108.5 163t-38.5 216q0 127 44 227t125 168t194.5 104t252.5 36h620v-144q0 -13 -6.5 -27.5t-19 -27t-30 -20.5t-38.5 -8h-199zM790 512q0 43 -4 89
t-13.5 87t-25.5 73t-39 49h-44q-152 0 -223 -75t-71 -238q0 -143 50.5 -213t159.5 -70t159.5 72t50.5 226z" />
    <glyph glyph-name="sigma1" unicode="&#x3c2;" horiz-adv-x="959" 
d="M866 791q-14 -17 -27 -27t-37 -10q-23 0 -41.5 11t-41.5 24.5t-54 24.5t-77 11q-57 0 -98.5 -20t-68.5 -54t-40 -79.5t-13 -95.5q0 -82 16.5 -132.5t54.5 -84.5t100.5 -59t155.5 -57q109 -43 159.5 -106.5t50.5 -153.5q0 -78 -24 -152t-74 -150l-240 88q8 13 17 30.5
t16.5 35.5t12.5 35t5 31q0 37 -22.5 65t-76.5 45q-62 19 -120.5 40.5t-110.5 50.5t-96 68.5t-75.5 94t-49 126.5t-17.5 166q0 99 33.5 189t99 158t162 108.5t223.5 40.5q122 0 214 -39t166 -114z" />
    <glyph glyph-name="tau" unicode="&#x3c4;" horiz-adv-x="975" 
d="M8 941q0 18 6.5 35.5t19 30.5t32 21t45.5 8h852v-117q0 -51 -27 -78t-78 -27h-252v-488q0 -58 22 -87.5t75 -29.5h102v-90q0 -32 -21 -56t-54 -40.5t-73.5 -25t-79.5 -8.5q-69 0 -122 24.5t-88 68t-53 101.5t-18 126v505h-288v127z" />
    <glyph glyph-name="upsilon" unicode="&#x3c5;" horiz-adv-x="1131" 
d="M404 1037v-658q0 -77 42.5 -119t110.5 -42q35 0 70 14.5t63.5 51.5t46 101t17.5 163q0 51 -6 99.5t-14 96.5t-16 97t-13 100q-2 27 5 45t20 29.5t29 16.5t31 5h214q9 -64 18 -124.5t16 -120.5t11.5 -120.5t4.5 -123.5q0 -148 -44 -254.5t-116 -175.5t-165.5 -101.5
t-192.5 -32.5q-107 0 -189.5 28t-138.5 79.5t-85 124.5t-29 163v658h310z" />
    <glyph glyph-name="phi" unicode="&#x3c6;" horiz-adv-x="1612" 
d="M359 519q0 -74 21.5 -131.5t60.5 -97.5t93.5 -61.5t121.5 -23.5v484q0 98 28 167t79.5 113t124 64t161.5 20q115 0 210 -39t162.5 -107.5t104.5 -161.5t37 -202q0 -131 -47 -234t-130 -174.5t-195.5 -110.5t-244.5 -40v-313h-290v314q-131 2 -242 40.5t-192 108
t-127 167.5t-46 220q0 91 29 172t81 148t124.5 119t159.5 86l81 -119q12 -17 13.5 -36t-4 -36t-16 -30.5t-22.5 -18.5q-61 -42 -98.5 -113t-37.5 -174zM946 205q71 1 128 23t96.5 64t61 104.5t21.5 146.5q0 70 -20 124.5t-50 91t-66 55.5t-68 19q-21 0 -40 -7t-33 -23.5
t-22 -44t-8 -69.5v-484z" />
    <glyph glyph-name="_375" horiz-adv-x="1612" 
d="M951 1457v-404q132 -2 244 -39.5t193.5 -106.5t128 -166.5t46.5 -219.5q0 -123 -46.5 -221.5t-128 -168.5t-193.5 -108t-244 -39v-313h-290v313q-132 1 -244 39t-193.5 108t-128 168.5t-46.5 221.5q0 122 46.5 219.5t128 166.5t193.5 106.5t244 39.5v404h290zM1253 519
q0 75 -22 133t-61.5 97.5t-95.5 60.5t-123 23v-628q67 1 123 22t95.5 61t61.5 98t22 133zM359 519q0 -75 21.5 -133t61.5 -98t95.5 -61t123.5 -22v628q-68 -2 -123.5 -23t-95.5 -60.5t-61.5 -97.5t-21.5 -133z" />
    <glyph glyph-name="chi" unicode="&#x3c7;" horiz-adv-x="1013" 
d="M465 144q-4 -32 -10 -60.5t-14 -51.5l-131 -305q-8 -23 -28 -38.5t-56 -15.5h-223l327 719l-144 342q-14 30 -27.5 49t-30 30.5t-38 15.5t-52.5 4h-40v110q0 23 0.5 43t10.5 35t34 23.5t71 8.5q59 0 109 -10.5t91 -35t74 -64.5t59 -98l120 -284q4 32 10 60.5t14 51.5
l131 311q8 23 28 38.5t56 15.5h223l-329 -719l153 -361q17 -43 44 -66t86 -23h42v-119q0 -32 -5.5 -51.5t-18.5 -30.5t-34.5 -15t-54.5 -4q-54 0 -102 9t-89.5 33.5t-77 68.5t-63.5 114z" />
    <glyph glyph-name="psi" unicode="&#x3c8;" horiz-adv-x="1629" 
d="M971 1457v-1231q68 9 118.5 29.5t83.5 58.5t49.5 95t16.5 139q0 85 -7.5 141t-17 98t-17 77t-7.5 77q0 27 7.5 45t19.5 29.5t27.5 16.5t30.5 5h224q12 -64 21 -124.5t16 -120.5t10.5 -120.5t3.5 -123.5q0 -147 -44.5 -248.5t-122 -166t-183.5 -97.5t-229 -44v-321h-310
v319q-156 13 -265 55t-177 109.5t-99 159t-31 203.5v520h216q19 0 36 -11t30 -27.5t20.5 -36.5t7.5 -38v-407q0 -126 67 -195t195 -91v1226h310z" />
    <glyph glyph-name="omega" unicode="&#x3c9;" horiz-adv-x="1640" 
d="M532 218q36 0 61 18t40.5 50t23 76t8.5 96v243h310v-220h1q0 -57 6.5 -105t22 -83t41 -55t63.5 -20q30 0 59.5 13.5t52.5 49.5t37.5 99.5t14.5 163.5q0 37 -7.5 78t-19.5 80.5t-25.5 75.5t-25 64t-19.5 45.5t-8 20.5q-15 36 -12 60.5t16.5 40t32.5 22t34 6.5h224
q28 -56 50 -118.5t38 -126t24.5 -127t8.5 -121.5q0 -117 -29 -219t-84.5 -177.5t-136.5 -119.5t-185 -44q-62 0 -112 12t-91 34t-72.5 51t-55.5 64q-24 -35 -55.5 -64t-72 -51t-89.5 -34t-109 -12q-104 0 -185 44t-136.5 119.5t-84.5 177.5t-29 219q0 58 8.5 121.5t24 127
t38 126t50.5 118.5h224q15 0 34 -6.5t32.5 -22t16.5 -40t-12 -60.5q0 -3 -8 -20.5t-19.5 -45.5t-25 -64t-25.5 -75.5t-19.5 -80.5t-7.5 -78q0 -100 14.5 -163.5t37.5 -99.5t52.5 -49.5t59.5 -13.5z" />
    <glyph glyph-name="tonos" unicode="&#x384;" 
d="M308 1140l48 385h190q42 0 56 -24.5t0 -66.5l-117 -294h-177z" />
    <glyph glyph-name="dieresistonos" unicode="&#x385;" 
d="M304 1149l48 386h190q42 0 56 -25t0 -67l-117 -294h-177zM861 1306q0 -26 -10 -48t-27.5 -38.5t-41 -26t-50.5 -9.5t-50 9.5t-40.5 26t-27.5 38.5t-10 48t10 49.5t27.5 41t40.5 27.5t50 10t50.5 -10t41 -27.5t27.5 -41t10 -49.5zM278 1306q0 -26 -10.5 -48t-28 -38.5
t-41.5 -26t-51 -9.5q-26 0 -48.5 9.5t-40 26t-27.5 38.5t-10 48t10 49.5t27.5 41t40 27.5t48.5 10q27 0 51 -10t41.5 -27.5t28 -41t10.5 -49.5z" />
    <glyph glyph-name="uni0374" unicode="&#x374;" horiz-adv-x="472" 
d="M379 1524q47 -184 -5 -352t-195 -313l-98 58q-29 17 -31 40.5t11 40.5q31 42 55 79t33.5 74.5t0.5 77t-44 87.5v133q0 33 19 54t61 21h193z" />
    <glyph glyph-name="uni0375" unicode="&#x375;" horiz-adv-x="472" 
d="M379 408q47 -184 -5 -352t-195 -313l-98 58q-29 17 -31 40.5t11 40.5q31 42 55 79t33.5 74.5t0.5 77t-44 87.5v133q0 33 19 54t61 21h193z" />
    <glyph glyph-name="uni0411" unicode="&#x411;" horiz-adv-x="1277" 
d="M1173 1204h-694v-330h196q151 0 256.5 -33t171.5 -88.5t96 -129t30 -154.5q0 -105 -37.5 -191.5t-108.5 -148t-174 -95.5t-234 -34h-534v1457h1032v-253zM479 619v-364h196q67 0 110 15t67.5 40.5t33.5 57.5t9 67q0 40 -9 74t-33.5 58.5t-67.5 38t-110 13.5h-196z" />
    <glyph glyph-name="uni0413" unicode="&#x413;" horiz-adv-x="1089" 
d="M1059 1206h-578v-1206h-340v1457h918v-251z" />
    <glyph glyph-name="uni0490" unicode="&#x490;" horiz-adv-x="1089" 
d="M1059 1206h-578v-1206h-340v1457h658v319h260v-570z" />
    <glyph glyph-name="uni0414" unicode="&#x414;" horiz-adv-x="1657" 
d="M1396 1457v-1206h216v-499q0 -42 -29.5 -67t-76.5 -25h-204v340h-978v-248q0 -42 -29.5 -67t-76.5 -25h-204v591h164q25 15 51 47t50.5 90.5t46.5 147.5t40 218t30.5 302.5t18.5 400.5h981zM733 1206q-12 -189 -30.5 -339t-43.5 -266t-55.5 -202.5t-65.5 -147.5h518v955
h-323z" />
    <glyph glyph-name="uni0416" unicode="&#x416;" horiz-adv-x="2189" 
d="M303 1457q51 0 93.5 -23.5t68.5 -67.5l237 -428q24 -43 53 -57t67 -14h113v590h318v-590h114q38 0 67 14t53 57l237 428q26 44 68.5 67.5t93.5 23.5h268l-332 -547q-31 -49 -64 -82t-79 -53q57 -20 103 -60t85 -108l334 -607h-226q-73 0 -125 30.5t-83 82.5l-234 425
q-26 47 -58.5 64.5t-79.5 17.5h-142v-620h-318v620h-141q-47 0 -79.5 -17.5t-58.5 -64.5l-234 -425q-31 -52 -83 -82.5t-125 -30.5h-226l334 607q39 68 84.5 108t103.5 60q-47 20 -80 53t-63 82l-332 547h268z" />
    <glyph glyph-name="uni0417" unicode="&#x417;" horiz-adv-x="1174" 
d="M1074 1085q0 -98 -42.5 -182t-134.5 -139q46 -24 85 -55.5t67 -69t43.5 -80.5t15.5 -92q0 -101 -37.5 -188.5t-109.5 -152.5t-177 -102.5t-240 -37.5q-75 0 -151 14t-146.5 39.5t-132 60.5t-108.5 78l100 158q12 17 31.5 28.5t42.5 11.5q31 0 64 -19t75.5 -42t99.5 -42
t135 -19q56 0 100 10.5t74.5 34.5t46.5 62t16 93q0 43 -18.5 76t-52 55.5t-80 33.5t-102.5 10h-212l-1 262h185q126 0 187 42.5t61 123.5q0 69 -56 109.5t-168 40.5q-65 0 -113.5 -14.5t-86 -32.5t-66 -32.5t-52.5 -14.5q-26 0 -42.5 12t-31.5 36l-84 157q85 72 209.5 113.5
t269.5 41.5q123 0 222.5 -28.5t169.5 -79.5t107.5 -122.5t37.5 -157.5z" />
    <glyph glyph-name="uni0418" unicode="&#x418;" horiz-adv-x="1554" 
d="M1010 1356q11 18 26.5 36t34.5 32.5t41 23.5t46 9h255v-1457h-340v816q0 57 3 120t14 135q-23 -63 -50.5 -118t-52.5 -95l-443 -757q-11 -18 -26.5 -36t-34.5 -32.5t-41 -23.5t-46 -9h-255v1457h340v-815q0 -58 -3.5 -121.5t-13.5 -134.5q23 63 50 117.5t53 95.5z" />
    <glyph glyph-name="uni041A" unicode="&#x41a;" horiz-adv-x="1438" 
d="M479 867h124q38 0 65.5 14t50.5 51l264 439q23 38 56 62t80 24h290l-355 -573q-25 -40 -60 -66.5t-77 -42.5q67 -18 114 -59.5t88 -114.5l326 -601h-309q-45 0 -76 24t-57 69l-242 455q-24 44 -54 58t-76 14h-152v-620h-338v1457h338v-590z" />
    <glyph glyph-name="uni041B" unicode="&#x41b;" horiz-adv-x="1521" 
d="M1380 1457v-1457h-340v1206h-322q-15 -268 -42.5 -462.5t-65 -330.5t-86 -220t-105 -130.5t-122 -62.5t-137.5 -16q-88 0 -125 15.5t-37 45.5v205h84q22 0 46 4t49 21t49.5 50t47 92t43 147t37 213.5t28.5 293.5t17 386h981z" />
    </font>
</defs>
</svg>
